Yamla Pagla Deewana 2 - [Bollywood] -(2013) - [ModernEffigy]

Size 37.645 MB   0 seeders     Added 2013-05-09 16:08:34

Stream torrent
Starting‥ You need BitLord! Get it from 1BitLord.com
To download or stream you need BitLord. Visit them at BitLord.com
Kai Po Che (2013) 1/3 DVDRip x264 AC3 ESub
[php]Format                           : Matroska
File size                        : 1.46 GiB
Duration                         : 2h 5mn
Overall bit rate                 : 1 669 Kbps
Encoded date                     : UTC 2013-05-08 11:04:26
Writing application              : mkvmerge v6.1.0 ('Old Devil') built on Mar  2 2013 14:32:37
Writing library                  : libebml v1.3.0 + libmatroska v1.4.0
Video
ID                               : 1
Format                           : AVC
Format/Info                      : Advanced Video Codec
Format profile                   : High@L3.0
Format settings, CABAC           : Yes
Format settings, ReFrames        : 4 frames
Format settings, GOP             : M=4, N=10
Codec ID                         : V_MPEG4/ISO/AVC
Duration                         : 2h 5mn
Bit rate                         : 1 347 Kbps
Width                            : 720 pixels
Height                           : 304 pixels
Display aspect ratio             : 2.35:1
Frame rate                       : 23.976 fps
Color space                      : YUV
Chroma subsampling               : 4:2:0
Bit depth                        : 8 bits
Scan type                        : Progressive
Bits/(Pixel*Frame)               : 0.257
Stream size                      : 1.15 GiB (79%)
Writing library                  : x264 core 130 r2273 b3065e6
Audio
ID                               : 2
Format                           : AC-3
Format/Info                      : Audio Coding 3
Mode extension                   : CM (complete main)
Codec ID                         : A_AC3
Duration                         : 2h 5mn
Bit rate mode                    : Constant
Bit rate                         : 320 Kbps
Channel(s)                       : 2 channels
Channel positions                : Front: L R
Sampling rate                    : 48.0 KHz
Bit depth                        : 16 bits
Compression mode                 : Lossy
Delay relative to video          : 200ms
Stream size                      : 287 MiB (19%)[/php]      
Yamla Pagla Deewana 2 - [Bollywood] -(2013) - [ModernEffigy]/03 - Suit Tera Laal Rang Da.mp3 5.663 MB
Yamla Pagla Deewana 2 - [Bollywood] -(2013) - [ModernEffigy]/06 - Sadi Daru Da Pani (YPD Version).mp3 5.244 MB
Yamla Pagla Deewana 2 - [Bollywood] -(2013) - [ModernEffigy]/01 - Yamla Pagla Deewana.mp3 5.134 MB
Gathering some info...

Register and log in Isohunt and see no captcha anymore!

4000 symbols left
Hash e37894d0e2ee1832bf640751b16768720b47efb4

Related torrents for "Yamla Pagla Deewana 2 - [Bollywood] -(2013) - [ModernEffigy]"

Torrent search:

2013