imdb
rating

5.0
White Collar Hooligan 2: England Away

White Collar Hooligan 2: England Away (2013)

Crime, Thriller

Full description
quality   dvdrip x264 hd bd fullhd h264

White.Collar.Hooligan.2.England.Away.2013 BRRip XViD juggs

Size 737.986 MB   0 seeders     Added 2013-05-09 19:46:36

Stream torrent
Starting‥ You need BitLord! Get it from BitLord.com
To download or stream you need BitLord. Visit them at BitLord.com
Source : VETO(Thanks)
 
http://www.imdb.com/title/tt2291606/

Format                                   : AVI
Format/Info                              : Audio Video Interleave
File size                                : 697 MiB
Duration                                 : 1h 37mn
Overall bit rate                         : 1 002 Kbps
Writing library                          : VirtualDub build 32842/release

Video
ID                                       : 0
Format                                   : MPEG-4 Visual
Format profile                           : Advanced Simple@L5
Format settings, BVOP                    : 2
Format settings, QPel                    : No
Format settings, GMC                     : No warppoints
Format settings, Matrix                  : Default (H.263)
Muxing mode                              : Packed bitstream
Codec ID                                 : XVID
Codec ID/Hint                            : XviD
Duration                                 : 1h 37mn
Bit rate                                 : 864 Kbps
Width                                    : 640 pixels
Height                                   : 272 pixels
Display aspect ratio                     : 2.35:1
Frame rate                               : 23.976 fps
Color space                              : YUV
Chroma subsampling                       : 4:2:0
Bit depth                                : 8 bits
Scan type                                : Progressive
Compression mode                         : Lossy
Bits/(Pixel*Frame)                       : 0.207
Stream size                              : 601 MiB (86%)
Writing library                          : XviD 1.2.0.dev47 (UTC 2006-11-01)

Audio
ID                                       : 1
Format                                   : MPEG Audio
Format version                           : Version 1
Format profile                           : Layer 3
Mode                                     : Joint stereo
Mode extension                           : MS Stereo
Codec ID                                 : 55
Codec ID/Hint                            : MP3
Duration                                 : 1h 37mn
Bit rate mode                            : Constant
Bit rate                                 : 128 Kbps
Channel(s)                               : 2 channels
Sampling rate                            : 44.1 KHz
Compression mode                         : Lossy
Stream size                              : 89.0 MiB (13%)
Alignment                                : Split accross interleaves
Interleave, duration                     : 42 ms (1.00 video frame)
Interleave, preload duration             : 500 ms
Writing library                          : LAME3.98.2

Plot
Mike Jacobs thinks he's safe in Witness Protection in Spain. However, when he's spotted at an England game, a deadly game of cat and mouse between London, Marbella and New York ensues.
 
image 
image 
image		
White.Collar.Hooligan.2.England.Away.2013 BRRip XViD juggs/Torrent Downloaded From ExtraTorrent.com.txt 339 B
White.Collar.Hooligan.2.England.Away.2013 BRRip XViD juggs/White.Collar.Hooligan.2.England.Away.2013 BRRip XViD juggs.avi 730.558 MB
White.Collar.Hooligan.2.England.Away.2013 BRRip XViD juggs/sample.avi 7.428 MB
Gathering some info...

Register and log in Isohunt and see no captcha anymore!

4000 symbols left
Hash 20f7c81844531c34a938f80e1d1b4d83034e3cf4

Related torrents for "White.Collar.Hooligan.2.England.Away.2013 BRRip XViD juggs"

Torrent search:

bd 2013