imdb
rating

7.5
Local Hero

Local Hero (1983)

Comedy, Drama

Full description
quality   dvdrip h264 dvdr

Local Hero (1983) DVDRip XviD AC3 peaSoup

Size 1.278 GB   1 seeders     Added 2013-05-10 00:50:38

Stream torrent
Starting‥ You need BitLord! Get it from BitLord.com
10
To download or stream you need BitLord. Visit them at BitLord.com
List:
http://www.imdb.com/title/tt0085859/
List:
List:
Oil billionaire Happer sends Mac to a remote Scotish villiage to secure the property rights for an oil refinery they want to build. Mac teams up with Danny and starts the negotiations, the locals are keen to get their hands on the 'Silver Dollar' and can't believe their luck. However a local hermit and beach scavenger, Ben Knox, lives in a shack on the crucial beach which he also owns. Happer is more interested in the Northern Lights and Danny in a surreal girl with webbed feet, Marina. Mac is used to a Houston office with fax machines but is forced to negotiate on Bens terms.
List:

List:
Format : AVI
Format/Info : Audio Video Interleave
Format profile : OpenDML
File size : 1.18 GiB
Duration : 1h 46mn
Overall bit rate : 1 586 Kbps
Movie name : Local Hero (1983) DVDRip XviD AC3 peaSoup
Writing application : Lavf53.21.0
Original source form/Name : F4DVD90076
Video
ID : 0
Format : MPEG-4 Visual
Format profile : Advanced Simple@L5
Format settings, BVOP : 2
Format settings, QPel : No
Format settings, GMC : No warppoints
Format settings, Matrix : Default (H.263)
Muxing mode : Packed bitstream
Codec ID : XVID
Codec ID/Hint : XviD
Duration : 1h 46mn
Bit rate : 1 380 Kbps
Width : 720 pixels
Height : 392 pixels
Display aspect ratio : 1.85:1
Frame rate : 25.000 fps
Color space : YUV
Chroma subsampling : 4:2:0
Bit depth : 8 bits
Scan type : Progressive
Compression mode : Lossy
Bits/(Pixel*Frame) : 0.196
Stream size : 1.03 GiB (87%)
Writing library : XviD 1.2.1 (UTC 2008-12-04)
Audio
ID : 1
Format : AC-3
Format/Info : Audio Coding 3
Mode extension : CM (complete main)
Format settings, Endianness : Big
Codec ID : 2000
Duration : 1h 46mn
Bit rate mode : Constant
Bit rate : 192 Kbps
Channel(s) : 2 channels
Channel positions : Front: L R
Sampling rate : 48.0 KHz
Bit depth : 16 bits
Compression mode : Lossy
Stream size : 147 MiB (12%)
Alignment : Aligned on interleaves
Interleave, duration : 32 ms (0.80 video frame)
Local Hero (1983) DVDRip XviD AC3 peaSoup/Local Hero (1983) DVDRip XviD AC3 peaSoup.avi 1.271 GB
Local Hero (1983) DVDRip XviD AC3 peaSoup/Local Hero (1983) DVDRip XviD AC3 peaSoup.idx 75.029 KB
Local Hero (1983) DVDRip XviD AC3 peaSoup/Local Hero (1983) DVDRip XviD AC3 peaSoup.sub 7.004 MB
Gathering some info...

Register and log in Isohunt and see no captcha anymore!

4000 symbols left
Hash d94e47bf4484a7b246ec663e846fda567cdfc711

Related torrents for "Local Hero (1983) DVDRip XviD AC3 peaSoup"

Torrent search:

dvdrip 1983