imdb
rating

5.8
Drop Dead Fred

Drop Dead Fred (1991)

Comedy, Fantasy, Family

Full description
quality   dvdrip x264 hdtv hd

Drop Dead Fred (1991) DVDRip XviD AC3 peaSoup

Size 1.189 GB   6 seeders     Added 2013-05-10 02:50:27

Stream torrent
Starting‥ You need BitLord! Get it from BitLord.com
10
To download or stream you need BitLord. Visit them at BitLord.com
List:
http://www.imdb.com/title/tt0101775/
List:
List:
A young woman who's attempting to find her place in the world battles with her controlling mother and a womanizing husband finds comfort and confusion with the appearance of her childhood friend. It is a zappy movie that emphasizes self-actualization.
List:

List:
Format : AVI
Format/Info : Audio Video Interleave
Format profile : OpenDML
File size : 1.06 GiB
Duration : 1h 35mn
Overall bit rate : 1 602 Kbps
Movie name : Drop Dead Fred (1991) DVDRip XviD AC3 peaSoup
Writing application : Lavf53.21.0
Original source form/Name : DROP_DEAD_FRED
Video
ID : 0
Format : MPEG-4 Visual
Format profile : Advanced Simple@L5
Format settings, BVOP : 2
Format settings, QPel : No
Format settings, GMC : No warppoints
Format settings, Matrix : Default (H.263)
Muxing mode : Packed bitstream
Codec ID : XVID
Codec ID/Hint : XviD
Duration : 1h 35mn
Bit rate : 1 396 Kbps
Width : 720 pixels
Height : 388 pixels
Display aspect ratio : 1.85:1
Frame rate : 25.000 fps
Color space : YUV
Chroma subsampling : 4:2:0
Bit depth : 8 bits
Scan type : Progressive
Compression mode : Lossy
Bits/(Pixel*Frame) : 0.200
Stream size : 950 MiB (87%)
Writing library : XviD 1.2.1 (UTC 2008-12-04)
Audio
ID : 1
Format : AC-3
Format/Info : Audio Coding 3
Mode extension : CM (complete main)
Format settings, Endianness : Big
Codec ID : 2000
Duration : 1h 35mn
Bit rate mode : Constant
Bit rate : 192 Kbps
Channel(s) : 2 channels
Channel positions : Front: L R
Sampling rate : 48.0 KHz
Bit depth : 16 bits
Compression mode : Lossy
Stream size : 131 MiB (12%)
Alignment : Aligned on interleaves
Interleave, duration : 32 ms (0.80 video frame)
Drop Dead Fred (1991) DVDRip XviD AC3 peaSoup/Drop Dead Fred (1991) DVDRip XviD AC3 peaSoup.avi 1.143 GB
Drop Dead Fred (1991) DVDRip XviD AC3 peaSoup/Drop Dead Fred (1991) DVDRip XviD AC3 peaSoup.idx 502.241 KB
Drop Dead Fred (1991) DVDRip XviD AC3 peaSoup/Drop Dead Fred (1991) DVDRip XviD AC3 peaSoup.sub 45.627 MB
Gathering some info...

Register and log in Isohunt and see no captcha anymore!

4000 symbols left
Hash bf72ad9d3b3b5bed0254980dbef229e044d2bc16

Related torrents for "Drop Dead Fred (1991) DVDRip XviD AC3 peaSoup"

Torrent search:

dvdrip 1991