imdb
rating

8.1
Power

Power (2014)

Drama, Crime

Full description

Oz.The.Great.And.Powerful.2013.HDTC.XviD.AC3-PublicHash

Size 846.816 MB   4 seeders     Added 2013-05-10 05:16:37

Stream torrent
Starting‥ You need BitLord! Get it from 1BitLord.com
To download or stream you need BitLord. Visit them at BitLord.com
--------------------------------------------
 
http://publichash.com/

--------------------------------------------

Oz the Great and Powerful (2013)
130 min  -  Adventure | Family | Fantasy  -  8 March 2013 (USA)
IMDB Rating 6.8 

A small-time magician is swept away to an enchanted land and is forced into a power struggle between three witches.

Director: Sam Raimi
Writers: Mitchell Kapner (screenplay), David Lindsay-Abaire (screenplay)

James Franco	 ...	Oz
Mila Kunis	 ...	Theodora
Rachel Weisz	 ...	Evanora
Michelle Williams	 ...	Annie / Glinda
Zach Braff	 ...	Frank / Finley
Bill Cobbs	 ...	Master Tinker
Joey King	 ...	Girl in Wheelchair / China Girl
Tony Cox	 ...	Knuck
Stephen R. Hart	 ...	Winkie General
Abigail Spencer	 ...	May
Bruce Campbell	 ...	Winkie Gate Keeper
Ted Raimi	 ...	Skeptic in Audience
Tim Holmes	 ...	Strongman
Toni Wynne	 ...	Strong Man's Wife
Rob Crites	 ...	Firebreather
William Dick	 ...	Front Gate Barker
Gene Jones	 ...	Wild West Barker
John Lord Booth III	 ...	Oz's Tent Barker
Suzanne Keilly	 ...	Concessioneer
Shannon Murray	 ...	Girl in Wheelchair's Mother
Ralph Lister	 ...	Girl in Wheelchair's Father

Beautiful yet vapid prequel to "The Wizard Of Oz" that is plague by not only by the numbers script but the questionable judgment of the people behind the scenes of the making of the film. The CGI effects are good and the characters created by those effects are cute but they are not strong enough to hide the films real problems. The script is so by the numbers that you can envision the twist and the ending five minutes into the film. Prequels are generally predicable because it set before the events of a prior movie but this film just did not have any originality to it and was just lazy in its set up. The script is not the only problem here; some of the casting is also off by a large margin as well. James Franco was not the first actor to be considered to play the character of Oscar Diggs but you can see a hundred better actors who could have done the role justice before you can ever think of Franco in the role and he does not disappoint in proving how miscast he is. Franco is terrible, so terrible that he is distracting to the film. He definitely does not care about his performance and it shows. Franco just swaggers in as if he is above the material and the actors around him while in reality, his performance is worse that the script of this film. Making his character so unlikable that you really do not want to watch or care about him. While Franco is in his own little world, Mila Kunis just looks lost in her performance. She is not believable as the wicked witch of the west and just comes across as lightweight compare to her sisters played by Rachel Weisz and Michelle Williams who are both much better actors than this film deserved. Weisz in particular gives the film's best performance because she at least makes an effort with the lazy script she has to work with and just has fun with it. Her character is the typical Disney villain but in Weisz's capable hands, she becomes more and that does translate on screen. You as an audience member are swept off your feet by Weisz's enthusiasm for her role and the movie becomes better off because of it. Williams does the same, making her sweet tooth character a joy to watch as well and brings a real sincerity to the role which is a god sent because of how insincere Franco is in his.


Format                                   : MPEG-4
Format profile                           : Base Media / Version 2
Codec ID                                 : mp42
File size                                : 808 MiB
Duration                                 : 2h 4mn
Overall bit rate mode                    : Variable
Overall bit rate                         : 909 Kbps
Encoded date                             : UTC 2013-05-09 21:15:30
Tagged date                              : UTC 2013-05-09 21:46:26
Writing application                      : HandBrake 0.9.8 2012071700

Video
ID                                       : 1
Format                                   : AVC
Format/Info                              : Advanced Video Codec
Format profile                           : Main@L2.1
Format settings, CABAC                   : Yes
Format settings, ReFrames                : 4 frames
Codec ID                                 : avc1
Codec ID/Info                            : Advanced Video Coding
Duration                                 : 2h 4mn
Bit rate mode                            : Variable
Bit rate                                 : 744 Kbps
Width                                    : 656 pixels
Height                                   : 272 pixels
Display aspect ratio                     : 2.40:1
Frame rate mode                          : Constant
Frame rate                               : 25.000 fps
Color space                              : YUV
Chroma subsampling                       : 4:2:0
Bit depth                                : 8 bits
Scan type                                : Progressive
Bits/(Pixel*Frame)                       : 0.167
Stream size                              : 662 MiB (82%)
Writing library                          : x264 core 120
Encoding settings                        : cabac=1 / ref=1 / deblock=1:0:0 / analyse=0x1:0x111 / me=hex / subme=2 / psy=1 / psy_rd=1.00:0.00 / mixed_ref=0 / me_range=16 / chroma_me=1 / trellis=0 / 8x8dct=0 / cqm=0 / deadzone=21,11 / fast_pskip=1 / chroma_qp_offset=0 / threads=6 / sliced_threads=0 / nr=0 / decimate=1 / interlaced=0 / bluray_compat=0 / constrained_intra=0 / bframes=3 / b_pyramid=2 / b_adapt=1 / b_bias=0 / direct=1 / weightb=1 / open_gop=0 / weightp=1 / keyint=250 / keyint_min=25 / scenecut=40 / intra_refresh=0 / rc_lookahead=10 / rc=crf / mbtree=1 / crf=20.0 / qcomp=0.60 / qpmin=3 / qpmax=69 / qpstep=4 / ip_ratio=1.40 / aq=1:1.00
Encoded date                             : UTC 2013-05-09 21:15:30
Tagged date                              : UTC 2013-05-09 21:46:26
Color primaries                          : BT.601 NTSC
Transfer characteristics                 : BT.709
Matrix coefficients                      : BT.601

Audio
ID                                       : 2
Format                                   : AAC
Format/Info                              : Advanced Audio Codec
Format profile                           : LC
Codec ID                                 : 40
Duration                                 : 2h 4mn
Bit rate mode                            : Variable
Bit rate                                 : 160 Kbps
Maximum bit rate                         : 195 Kbps
Channel(s)                               : 2 channels
Channel positions                        : Front: L R
Sampling rate                            : 48.0 KHz
Compression mode                         : Lossy
Delay relative to video                  : 80ms
Stream size                              : 142 MiB (18%)
Encoded date                             : UTC 2013-05-09 21:15:30
Tagged date                              : UTC 2013-05-09 21:46:25

Screens:
 
http://imgsure.com/?p=663753		
Oz.The.Great.And.Powerful.2013.HDTC.XviD.AC3-PublicHash/Oz.The.Great.And.Powerful.2013.HDTC.XviD.AC3-PublicHash.mp4 846.816 MB
Oz.The.Great.And.Powerful.2013.HDTC.XviD.AC3-PublicHash/Torrent downloaded from PublicHash.com.txt 151 B
Gathering some info...

Register and log in Isohunt and see no captcha anymore!

4000 symbols left
Hash 060879f554826745c7691e310dec4603ac9714a6

Related torrents for "Oz.The.Great.And.Powerful.2013.HDTC.XviD.AC3-PublicHash"

Torrent search:

2013