imdb
rating

7.1
Side Effects

Side Effects (2013)

Crime, Drama, Thriller

Full description
quality   telesync dvdrip screener hd bd

Side Effects 2013 BRRip 480p x264 AAC - VYTO [P2PDL]

Size 324.938 MB   45 seeders     Added 2013-05-10 08:16:37

Stream torrent
Starting‥ You need BitLord! Get it from BitLord.com
To download or stream you need BitLord. Visit them at BitLord.com
_________________________  Visit us at _________________________
  
http://p2pdl.com  ____________________________  http://p2pdl.com


Side Effect 2013 BRRip 480p x264 AAC - VYTO


Genre: Crime | Drama | Thriller
Plot: A young woman's world unravels when a drug prescribed by her psychiatrist has unexpected side
effects.  
Director: Steven Soderbergh
Stars:  Rooney Mara, Channing Tatum, Jude Law.
Rated: R for sexuality, nudity, violence and language.


Info: 
http://www.imdb.com/title/tt2053463/

Trailer:


Format                         : MPEG-4
File size                      : 306 MiB
Duration                       : 1h 46mn
Overall bit rate               : 402 Kbps
Source:                        : 720p.BluRay.x264-SPARKS(Thanks)

Video
Format                         : AVC
Bit rate                       : 358 Kbps
Width                          : 720 pixels
Height                         : 384 pixels
Display aspect ratio           : 1.85:1
Frame rate mode                : Constant
Frame rate                     : 23.976 fps
Stream size                    : 272 MiB (89%)
Writing library                : x264 core 130 r2273

Audio
Format                         : AAC
Bit rate mode                  : Variable
Bit rate                       : 40.0 Kbps
Channel(s)                     : 2 channels
Channel positions              : Front: L R
Sampling rate                  : 44.1 KHz
Stream size                    : 30.4 MiB (10%)
Language                       : English

Subtitle                       : Yes (English)

 
image 
image 
image 
image 
image 
image


----------------------------------------------------------------------------------------------------


Encoded using revolutionary 10bit encoding, which enables us to provide you more crispier 
and sharper images at small sizes, just make sure you follow our instructions without a fault.
Recommend to you to use latest version of VLC player. Install K-Lite Codec Pack or shark007 codecs
in case of any kind of problem in playback (For non-VLC Media Player users). Alternatively, install
Core AVC codecs, the fastest decoder that there is coupled with Community Center Codec Pack and play
on Windows Media Player Classic. Check sample to be sure.
Enjoy!

Encoder Notes:Looking For Early Access To Anything You Can Provide DVDScr, R5, DVDR, BluRay, Direct
Audio, Music Releases and Seedboxes. We require dedicated servers, so as to do more 
and fast releases of movies.
If You Got anything to offer please contact us at "prg@hush.com".

Face book Fan Page:   
http://www.fb.me/p2pdl		
Side Effects 2013 BRRip 480p x264 AAC - VYTO [P2PDL]/Side Effects 2013 BRRip 480p x264 AAC - VYTO/Side Effects 2013 BRRip 480p x264 AAC - VYTO.mp4 320.468 MB
Side Effects 2013 BRRip 480p x264 AAC - VYTO [P2PDL]/Sample.mp4 4.347 MB
Side Effects 2013 BRRip 480p x264 AAC - VYTO [P2PDL]/Side Effects 2013 BRRip 480p x264 AAC - VYTO/Side Effects 2013 BRRip 480p x264 AAC - VYTO.srt 118.492 KB
Gathering some info...

Register and log in Isohunt and see no captcha anymore!

4000 symbols left
Hash a8d2295e627613c5b6a178f1d455341afd69af3e

Related torrents for "Side Effects 2013 BRRip 480p x264 AAC - VYTO [P2PDL]"

Torrent search:

x264 bd 2013