Eminem - Not Afraid [Music Video] 1080p [Sbyky].mp4

Size 73.693 MB   0 seeders     Added 2013-05-10 12:20:26

Stream torrent
Starting‥ You need BitLord! Get it from BitLord.com
To download or stream you need BitLord. Visit them at BitLord.com
							
General
Complete name : Eminem - Not Afraid [Music Video] 1080p [Sbyky].mp4
Format : MPEG-4
Format profile : Base Media / Version 2
Codec ID : mp42
File size : 70.3 MiB
Duration : 4mn 18s
Overall bit rate mode : Variable
Overall bit rate : 2 278 Kbps
Encoded date : UTC 2013-04-08 12:09:50
Tagged date : UTC 2013-04-08 12:09:50
Video
ID : 1
Format : AVC
Format/Info : Advanced Video Codec
Format profile : High@L4.0
Format settings, CABAC : Yes
Format settings, ReFrames : 1 frame
Codec ID : avc1
Codec ID/Info : Advanced Video Coding
Duration : 4mn 18s
Bit rate : 2 084 Kbps
Maximum bit rate : 5 112 Kbps
Width : 1 920 pixels
Height : 1 080 pixels
Display aspect ratio : 16:9
Frame rate mode : Constant
Frame rate : 23.976 fps
Color space : YUV
Chroma subsampling : 4:2:0
Bit depth : 8 bits
Scan type : Progressive
Bits/(Pixel*Frame) : 0.042
Stream size : 64.3 MiB (91%)
Tagged date : UTC 2013-04-08 12:09:54
Audio
ID : 2
Format : AAC
Format/Info : Advanced Audio Codec
Format profile : LC
Codec ID : 40
Duration : 4mn 18s
Bit rate mode : Variable
Bit rate : 192 Kbps
Maximum bit rate : 202 Kbps
Channel(s) : 2 channels
Channel positions : Front: L R
Sampling rate : 44.1 KHz
Compression mode : Lossy
Stream size : 5.92 MiB (8%)
Title : IsoMedia File Produced by Google, 5-11-2011
Encoded date : UTC 2013-04-08 12:09:53
Tagged date : UTC 2013-04-08 12:09:54
Shared By Sbyky
Eminem - Not Afraid [Music Video] 1080p [Sbyky].mp4 73.693 MB
Gathering some info...

Register and log in Isohunt and see no captcha anymore!

4000 symbols left
Hash 2ac8d5816b3810bb4396374384f49f2dfa4cd364

Related torrents for "Eminem - Not Afraid [Music Video] 1080p [Sbyky].mp4"

Torrent search:

fullhd