Eminem - Not Afraid [Music Video] 720p [Sbyky].mp4

Size 41.607 MB   3 seeders     Added 2013-05-10 12:20:54

Stream torrent
Starting‥ You need BitLord! Get it from BitLord.com
To download or stream you need BitLord. Visit them at BitLord.com
							
General
Complete name : Eminem - Not Afraid [Music Video] 720p [Sbyky].mp4
Format : MPEG-4
Format profile : Base Media / Version 2
Codec ID : mp42
File size : 39.7 MiB
Duration : 4mn 18s
Overall bit rate mode : Variable
Overall bit rate : 1 286 Kbps
Encoded date : UTC 2013-04-08 12:08:02
Tagged date : UTC 2013-04-08 12:08:02
Video
ID : 1
Format : AVC
Format/Info : Advanced Video Codec
Format profile : High@L3.1
Format settings, CABAC : Yes
Format settings, ReFrames : 1 frame
Codec ID : avc1
Codec ID/Info : Advanced Video Coding
Duration : 4mn 18s
Bit rate : 1 092 Kbps
Maximum bit rate : 2 708 Kbps
Width : 1 280 pixels
Height : 720 pixels
Display aspect ratio : 16:9
Frame rate mode : Constant
Frame rate : 23.976 fps
Color space : YUV
Chroma subsampling : 4:2:0
Bit depth : 8 bits
Scan type : Progressive
Bits/(Pixel*Frame) : 0.049
Stream size : 33.7 MiB (85%)
Tagged date : UTC 2013-04-08 12:08:08
Audio
ID : 2
Format : AAC
Format/Info : Advanced Audio Codec
Format profile : LC
Codec ID : 40
Duration : 4mn 18s
Bit rate mode : Variable
Bit rate : 192 Kbps
Maximum bit rate : 202 Kbps
Channel(s) : 2 channels
Channel positions : Front: L R
Sampling rate : 44.1 KHz
Compression mode : Lossy
Stream size : 5.92 MiB (15%)
Title : IsoMedia File Produced by Google, 5-11-2011
Encoded date : UTC 2013-04-08 12:08:05
Tagged date : UTC 2013-04-08 12:08:08
Shared By Sbyky
Eminem - Not Afraid [Music Video] 720p [Sbyky].mp4 41.607 MB
Gathering some info...

Register and log in Isohunt and see no captcha anymore!

4000 symbols left
Hash 8b80f84b5a1a93e7e0214f7bfcc01dc349ed72cc

Related torrents for "Eminem - Not Afraid [Music Video] 720p [Sbyky].mp4"

Torrent search:

hd