Darius Rucker - Wagon Wheel [Music Video] 720p [Sbyky].mp4

Size 94.234 MB   0 seeders     Added 2013-05-10 12:40:51

Stream torrent
Starting‥ You need BitLord! Get it from BitLord.com
To download or stream you need BitLord. Visit them at BitLord.com
							
General
Complete name : Darius Rucker - Wagon Wheel [Music Video] 720p [Sbyky].mp4
Format : MPEG-4
Format profile : Base Media / Version 2
Codec ID : mp42
File size : 89.9 MiB
Duration : 5mn 46s
Overall bit rate mode : Variable
Overall bit rate : 2 177 Kbps
Encoded date : UTC 2013-04-08 11:42:42
Tagged date : UTC 2013-04-08 11:42:42
Video
ID : 1
Format : AVC
Format/Info : Advanced Video Codec
Format profile : High@L3.1
Format settings, CABAC : Yes
Format settings, ReFrames : 1 frame
Codec ID : avc1
Codec ID/Info : Advanced Video Coding
Duration : 5mn 46s
Bit rate : 1 982 Kbps
Maximum bit rate : 4 491 Kbps
Width : 1 280 pixels
Height : 720 pixels
Display aspect ratio : 16:9
Frame rate mode : Constant
Frame rate : 23.976 fps
Color space : YUV
Chroma subsampling : 4:2:0
Bit depth : 8 bits
Scan type : Progressive
Bits/(Pixel*Frame) : 0.090
Stream size : 81.8 MiB (91%)
Tagged date : UTC 2013-04-08 11:42:49
Audio
ID : 2
Format : AAC
Format/Info : Advanced Audio Codec
Format profile : LC
Codec ID : 40
Duration : 5mn 46s
Bit rate mode : Variable
Bit rate : 192 Kbps
Maximum bit rate : 201 Kbps
Channel(s) : 2 channels
Channel positions : Front: L R
Sampling rate : 44.1 KHz
Compression mode : Lossy
Stream size : 7.93 MiB (9%)
Title : IsoMedia File Produced by Google, 5-11-2011
Encoded date : UTC 2013-04-08 11:42:47
Tagged date : UTC 2013-04-08 11:42:49
Shared By Sbyky
Darius Rucker - Wagon Wheel [Music Video] 720p [Sbyky].mp4 94.234 MB
Gathering some info...

Register and log in Isohunt and see no captcha anymore!

4000 symbols left
Hash b0cccc0abbc07d1a9758d5254f95ea516ffccfcd

Related torrents for "Darius Rucker - Wagon Wheel [Music Video] 720p [Sbyky].mp4"

Torrent search:

hd