Adele - Rolling In The Deep [Music Video] 720p [Sbyky].mp4

Size 41.328 MB   0 seeders     Added 2013-05-10 12:49:34

Stream torrent
Starting‥ You need BitLord! Get it from 1BitLord.com
To download or stream you need BitLord. Visit them at BitLord.com
General
Complete name : Adele - Rolling In The Deep [Music Video] 720p [Sbyky].mp4
Format : MPEG-4
Format profile : Base Media / Version 2
Codec ID : mp42
File size : 39.4 MiB
Duration : 3mn 53s
Overall bit rate mode : Variable
Overall bit rate : 1 414 Kbps
Encoded date : UTC 2013-04-04 02:15:02
Tagged date : UTC 2013-04-04 02:15:02
Video
ID : 1
Format : AVC
Format/Info : Advanced Video Codec
Format profile : [email protected]
/*  */

Format settings, CABAC : Yes
Format settings, ReFrames : 1 frame
Codec ID : avc1
Codec ID/Info : Advanced Video Coding
Duration : 3mn 53s
Bit rate : 1 219 Kbps
Maximum bit rate : 4 688 Kbps
Width : 1 280 pixels
Height : 720 pixels
Display aspect ratio : 16:9
Frame rate mode : Constant
Frame rate : 25.000 fps
Color space : YUV
Chroma subsampling : 4:2:0
Bit depth : 8 bits
Scan type : Progressive
Bits/(Pixel*Frame) : 0.053
Stream size : 34.0 MiB (86%)
Tagged date : UTC 2013-04-04 02:15:07
Audio
ID : 2
Format : AAC
Format/Info : Advanced Audio Codec
Format profile : LC
Codec ID : 40
Duration : 3mn 53s
Bit rate mode : Variable
Bit rate : 192 Kbps
Maximum bit rate : 202 Kbps
Channel(s) : 2 channels
Channel positions : Front: L R
Sampling rate : 44.1 KHz
Compression mode : Lossy
Stream size : 5.35 MiB (14%)
Title : IsoMedia File Produced by Google, 5-11-2011
Encoded date : UTC 2013-04-04 02:15:06
Tagged date : UTC 2013-04-04 02:15:07
Shared By Sbyky
Adele - Rolling In The Deep [Music Video] 720p [Sbyky].mp4 41.328 MB
Gathering some info...

Register and log in Isohunt and see no captcha anymore!

4000 symbols left
Hash 24992d51df2cb69511bdd277f3bcbd53fe10e13d

Related torrents for "Adele - Rolling In The Deep [Music Video] 720p [Sbyky].mp4"