Zakhmee.1975.2CD.DVDRip.Xvid.Mp3.Eng.Subs.RRG.DADA.DBBians.Com

Size 1.529 GB   0 seeders     Added 2013-05-10 19:16:27

Stream torrent
Starting‚Ä• You need BitLord! Get it from 1BitLord.com
To download or stream you need BitLord. Visit them at BitLord.com
Click To Enlarge 


-: Cover :-




    	image

-: Screens :-


    	image

    	image

    	image

    	image

    	image

    	image

    	image

    	image

    	image



-: Info :-


Format                           : AVI
Format/Info                      : Audio Video Interleave
File size                        : 1.37 GiB
Duration                         : 2h 19mn
Overall bit rate                 : 1 405 Kbps
Writing application              : VirtualDubMod 1.5.4.1 (build 2178/release)
Writing library                  : VirtualDubMod build 2178/release

Video
ID                               : 0
Format                           : MPEG-4 Visual
Format profile                   : Advanced Simple@L5
Format settings, BVOP            : Yes
Format settings, QPel            : No
Format settings, GMC             : No warppoints
Format settings, Matrix          : Custom
Codec ID                         : XVID
Codec ID/Hint                    : XviD
Duration                         : 2h 19mn
Bit rate                         : 949 Kbps
Width                            : 640 pixels
Height                           : 480 pixels
Display aspect ratio             : 4:3
Frame rate                       : 29.970 fps
Color space                      : YUV
Chroma subsampling               : 4:2:0
Bit depth                        : 8 bits
Scan type                        : Progressive
Bits/(Pixel*Frame)               : 0.103
Stream size                      : 946 MiB (68%)
Writing library                  : XviD 64

Audio
ID                               : 1
Format                           : AC-3
Format/Info                      : Audio Coding 3
Mode extension                   : CM (complete main)
Codec ID                         : 2000
Duration                         : 2h 19mn
Bit rate mode                    : Constant
Bit rate                         : 448 Kbps
Channel(s)                       : 6 channels
Channel positions                : Front: L C R, Side: L R, LFE
Sampling rate                    : 48.0 KHz
Bit depth                        : 16 bits
Stream size                      : 447 MiB (32%)
Alignment                        : Aligned on interleaves
Interleave, duration             : 96 ms (2.88 video frames)
Interleave, preload duration     : 96 ms


Ripper - DDR


 
http://www.imdb.com/title/tt0073923

Directed by
Raja Thakur	 	
 
Writing credits
(in alphabetical order)
Madan Joshi	 	dialogue
Humayun Mirza	 	screenplay (as Himanyun Mirza)
Humayun Mirza	 	story (as Himanyun Mirza)

Cast (in credits order) complete, awaiting verification
	Sunil Dutt	... 	Anand
	Asha Parekh	... 	Asha
	Rakesh Roshan	... 	Amar (as Raakesh Roshan)
	Reena Roy	... 	Nisha Ganguly
	Tariq	... 	Pawan
	Helen	... 	Sheila
	Johnny Walker	... 	Johny (as Johny Walker)
	Imtiaz	... 	Tiger
	Yunus Parvez	... 	Dilawar
	Jankidas	... 	Jankidas
	Habib		
	Madhup Sharma		
	Shyam Kumar		
	D.S. Rana		
	Abhimanyu Sharma		
	Babul		
	Gulam Hussain		(as Ghulam Husain)
	Khursheed Khan		(as Khurshid Khan)
	Jerry Raja		(as Jery Raja)
	Babubhai		
	Navin Kumar		
	Sujata		
	Shahzad Malik		(as Shahzada Malik)
	Vikrant		
	Vijayakanth		(as Vijay Kant)
	Shahid Bijnori		
	B. Chandrashekhar		
	Kamal Kapoor	... 	Chief
	Iftekhar	... 	Judge Ashok Ganguly
	Baby Pinky	... 	Tina (child artist)
	Piloo J. Wadia	... 	Shirin
	Usha Thakur		
	Ruhi Khan		(as Roohi)
	Agha	... 	Rustam


On the night of his marriage to Asha (Asha Parekh), Anand (Sunil Dutt) is arrested for allegedly murdering his business partner, and held in prison until his trial takes place. Anand refuses to say anything in his favor, thus leading his lawyer to conclude that Anand did commit this homicide. Refusing to believe that their brother could murder, his brothers, Amar and Pawan (Rakesh Roshan and Tariq respectively) kidnap Judge Ganguly's (Iftekhar) only daughter, Nisha (Reena Roy), in order to force the judge to find Anand not guilty, with disasterous results
		
Zakhmee.1975.2CD.DVDRip.Xvid.Mp3.Eng.Subs.RRG.DADA.DBBians.Com/Zakhmee (1975) MP3s/Zakhmee (1975) 01. Aao Tumhein Chand Pe Le Jayein, Lata Mangeshkar, Sushma Shrestha, Gauhar .mp3 4.889 MB
Zakhmee.1975.2CD.DVDRip.Xvid.Mp3.Eng.Subs.RRG.DADA.DBBians.Com/Zakhmee (1975) MP3s/Zakhmee (1975) 07 All Songs.mp3 24.558 MB
Zakhmee.1975.2CD.DVDRip.Xvid.Mp3.Eng.Subs.RRG.DADA.DBBians.Com/Zakhmee (1975) MP3s/Zakhmee (1975) 00. Title Music and Screen Credits, Bappi Lahiri.mp3 2.925 MB
Gathering some info...

Register and log in Isohunt and see no captcha anymore!

4000 symbols left
Hash 98b0123da57aca13ccae8cf9484f7e81c0e5dba9