imdb
rating

6.4
Night of the Comet

Night of the Comet (1984)

Action, Comedy, Horror, Science Fiction, Thriller

Full description
quality   dvdrip x264 hd bd fullhd

Night of the Comet (1984)-alE13

Size 3.705 GB   0 seeders     Added 2013-05-11 01:40:33

Stream torrent
Starting‥ You need BitLord! Get it from BitLord.com
To download or stream you need BitLord. Visit them at BitLord.com
							
gatunek: Horror, Sci-Fi
produkcja: USA
premiera: 16 listopada 1984 
reżyseria: Thom Eberhardt
scenariusz: Thom Eberhardt
muzyka: David Richard Campbell , Tom Perry
zdjęcia: Arthur Albert
opis:
A comet wipes out most of life on Earth, leaving two Valley Girls to fight 
the evil types who survive.
Apokaliptyczny film science-fiction. Śmiercionośna kometa przelatując tuż obok 
ziemi zabija prawie całą ludzkość swoim radioaktywnym promieniowaniem. Przeżywają 
tylko dwie urodziwe dziewczyny i mężczyzna o imieniu Hektor. Czeka je los gorszy o
d śmierci. Na ich życiodajną krew czyhają zombies i diaboliczni naukowcy.
obsada:
Robert Beltran ... 	 Hector
Catherine Mary Stewart 	... Regina
Kelli Maroney 	... 	 Samantha
dane techniczne:
Night of the Comet (1984)-alE13.mkv
Format : Matroska
Format version : Version 4 / Version 2
File size : 3.42 GiB
Duration : 1h 35mn
Overall bit rate : 5 144 Kbps
Movie name : Night of the Comet (1984)- alE13_AT-TEAM
Encoded date : UTC 2013-05-10 18:03:05
Writing application : mkvmerge v6.1.0 
Writing library : libebml v1.3.0 + libmatroska v1.4.0
Video
ID : 1
Format : AVC
Format/Info : Advanced Video Codec
Format profile : High@L4.0
Format settings, CABAC : Yes
Format settings, ReFrames : 2 frames
Codec ID : V_MPEG4/ISO/AVC
Duration : 1h 35mn
Bit rate : 4 500 Kbps
Width : 1 920 pixels
Height : 1 080 pixels
Display aspect ratio : 16:9
Frame rate mode : Constant
Frame rate : 29.970 fps
Color space : YUV
Chroma subsampling : 4:2:0
Bit depth : 8 bits
Scan type : Progressive
Bits/(Pixel*Frame) : 0.072
Stream size : 2.93 GiB (86%)
Title : Night of the Comet (1984)- alE13
Writing library : x264 core 112 r1834 a51816a
Audio
ID : 2
Format : AC-3
Format/Info : Audio Coding 3
Mode extension : CM (complete main)
Format settings, Endianness : Big
Codec ID : A_AC3
Duration : 1h 35mn
Bit rate mode : Constant
Bit rate : 640 Kbps
Channel(s) : 6 channels
Channel positions : Front: L C R, Side: L R, LFE
Sampling rate : 48.0 KHz
Bit depth : 16 bits
Compression mode : Lossy
Stream size : 435 MiB (12%)
Title : Night of the Comet (1984)- alE13_AC3
Language : English
Text #1
ID : 3
Format : VobSub
Muxing mode : zlib
Codec ID : S_VOBSUB
Codec ID/Info : The same subtitle format used on DVDs
Title : Night of the Comet (1984)- alE13_pl
Language : Polish
Text #2
ID : 4
Format : UTF-8
Codec ID : S_TEXT/UTF8
Codec ID/Info : UTF-8 Plain Text
Title : Night of the Comet (1984)-alE13_eng
Language : English
						
Night of the Comet (1984)-alE13/sub/Night Of The Comet (1984)-alE13.sub 4.467 MB
Night of the Comet (1984)-alE13/sub/Night Of The Comet (1984)-alE13_pl.srt 66.72 KB
Night of the Comet (1984)-alE13/sub/Night Of The Comet (1984)-alE13.idx 46.515 KB
Gathering some info...

Register and log in Isohunt and see no captcha anymore!

4000 symbols left
Hash a43f9a43be2936f90544bcf97c09a4a8eba8200a

Related torrents for "Night of the Comet (1984)-alE13"

Torrent search:

1984