imdb
rating

6.9
Uncle Buck

Uncle Buck (1989)

Comedy, Drama, Family

Full description
quality   dvdrip h264 hdtv hd x264 bd fullhd

Uncle Buck (1989) DVDRip XviD AC3 peaSoup

Size 1.221 GB   0 seeders     Added 2013-05-11 03:50:51

Stream torrent
Starting‥ You need BitLord! Get it from 1BitLord.com
To download or stream you need BitLord. Visit them at BitLord.com
List:
http://www.imdb.com/title/tt0098554/
List:
List:
Storyline
As an idle, good-natured bachelor, Uncle Buck is the last person you would think of to watch the kids. However, during a family crisis, he is suddenly left in charge of his nephew and nieces. Unaccustomed to suburban life, fun-loving Uncle Buck soon charms his younger relatives Miles and Maizy with his hefty cooking and his new way of doing the laundry. His carefree style does not impress everyone though - especially his rebellious teenage niece, Tia, and his impatient girlfriend, Chanice. With a little bit of luck and a lot of love, Uncle Buck manages to surprise everyone in this heartwarming family comedy.
List:

List:
Format : AVI
Format/Info : Audio Video Interleave
Format profile : OpenDML
File size : 1.08 GiB
Duration : 1h 35mn
Overall bit rate : 1 618 Kbps
Movie name : Uncle Buck (1989) DVDRip XviD AC3 peaSoup
Writing application : Lavf53.21.0
Original source form/Name : UNCLE_BUCK
Video
ID : 0
Format : MPEG-4 Visual
Format profile : Advanced Simple@L5
Format settings, BVOP : 2
Format settings, QPel : No
Format settings, GMC : No warppoints
Format settings, Matrix : Default (H.263)
Muxing mode : Packed bitstream
Codec ID : XVID
Codec ID/Hint : XviD
Duration : 1h 35mn
Bit rate : 1 412 Kbps
Width : 720 pixels
Height : 392 pixels
Display aspect ratio : 1.85:1
Frame rate : 25.000 fps
Color space : YUV
Chroma subsampling : 4:2:0
Bit depth : 8 bits
Scan type : Progressive
Compression mode : Lossy
Bits/(Pixel*Frame) : 0.200
Stream size : 965 MiB (87%)
Writing library : XviD 1.2.1 (UTC 2008-12-04)
Audio
ID : 1
Format : AC-3
Format/Info : Audio Coding 3
Format profile : Dolby Digital
Mode extension : CM (complete main)
Format settings, Endianness : Big
Codec ID : 2000
Duration : 1h 35mn
Bit rate mode : Constant
Bit rate : 192 Kbps
Channel(s) : 2 channels
Channel positions : Front: L R
Sampling rate : 48.0 KHz
Bit depth : 16 bits
Compression mode : Lossy
Stream size : 131 MiB (12%)
Alignment : Aligned on interleaves
Interleave, duration : 32 ms (0.80 video frame)
Uncle Buck (1989) DVDRip XviD AC3 peaSoup/Uncle Buck (1989) DVDRip XviD AC3 peaSoup.avi 1.159 GB
Uncle Buck (1989) DVDRip XviD AC3 peaSoup/Uncle Buck (1989) DVDRip XviD AC3 peaSoup.idx 656.464 KB
Uncle Buck (1989) DVDRip XviD AC3 peaSoup/Uncle Buck (1989) DVDRip XviD AC3 peaSoup.sub 61.944 MB
Gathering some info...

Register and log in Isohunt and see no captcha anymore!

4000 symbols left
Hash 0163baaa83c26bc7fb47d405b54391810e97f5fb

Related torrents for "Uncle Buck (1989) DVDRip XviD AC3 peaSoup"

Torrent search:

dvdrip 1989