Парад Победы Москва - Красная Площадь (2013)-alE13

Size 4.343 GB   0 seeders     Added 2013-05-11 05:58:37

Stream torrent
Starting‥ You need BitLord! Get it from 1BitLord.com
To download or stream you need BitLord. Visit them at BitLord.com
							
Produkcja:Rosja
Data: 2013
Producent: TV ROSIA HD
Reżyseria: TV ROSIA
Czas: 01:01:04
Victory Day or 9 May marks the capitulation of Nazi Germany to the Soviet Union in the 
Second World War (also known as the Great Patriotic War in the Soviet Union). It was first 
inaugurated in the fifteen republics of the Soviet Union, following the signing of the 
surrender document late in the evening on 8 May 1945 (after midnight, thus on 9 May, 
by Moscow Time). The Soviet government announced the victory early on 9 May after the signing 
ceremony in Berlin. Though the official inauguration happened in 1945 (which means it has 
been celebrated since 1946), the holiday became a non-labour day only in 1965 and only in some 
of the countries.
More: http://en.wikipedia.org/wiki/Victory_Day_%289_May%29
Rosja świętuje 68. rocznicę zakończenia II Wojny Światowej. Jak zawsze, główne uroczystości 
odbyły się na Placu Czerwonym w Moskwie. W obecności przywódców państwa i tłumu weteranów 
rosyjska armia zaprezentowała to, co ma najlepsze. W całej Rosji 9 maja odbędzie się około 
czterech tysięcy festynów i pochodów, a w Moskwie i jej okolicach 143 duże imprezy.
Parada, która trwała godzinę, jak zawsze odbyła się przy bezdeszczowej pogodzie. Także w tym 
roku przyczyniły się do tego siły powietrzne, które przy użyciu specjalnych reagentów, 
rozpylonych w przededniu defilady z samolotów An-12 i An-26, rozpędziły deszczowe chmury 
w rejonie Moskwy.
więcej:a rel="nofollow" href="http://www.tvn24.pl/defilada-zwyciestwa-w-moskwie-zgodnie-z-tradycja-w-sloncu-i-w-duchu-imperium,324335,s.html 
Obsada:
Putin
Miediedjew
Paradująca Ruska Armia
Dane techniczne: 
Парад Победы Москва - Красная Площадь (2013) -alE13.mkv
Format : Matroska
Format version : Version 4 / Version 2
File size : 2.95 GiB
Duration : 1h 1mn
Overall bit rate : 6 917 Kbps
Movie name : Парад Победы Москва - Красная Площадь (2013)_AT-TEAM
Encoded date : UTC 2013-05-10 22:29:47
Writing application : mkvmerge v6.1.0 
Writing library : Lavf52.94.0
Video
ID : 1
Format : AVC
Format/Info : Advanced Video Codec
Format profile : Main@L4.0
Format settings, CABAC : Yes
Format settings, ReFrames : 2 frames
Codec ID : V_MPEG4/ISO/AVC
Duration : 1h 1mn
Bit rate : 6 290 Kbps
Width : 1 920 pixels
Height : 1 080 pixels
Display aspect ratio : 16:9
Frame rate mode : Constant
Frame rate : 25.000 fps
Color space : YUV
Chroma subsampling : 4:2:0
Bit depth : 8 bits
Scan type : Progressive
Bits/(Pixel*Frame) : 0.121
Stream size : 2.62 GiB (89%)
Title : Парад Победы Москва - Красная Площадь (2013)-alE13
Writing library : x264 core 112 r1834 a51816a
Audio
ID : 2
Format : AC-3
Format/Info : Audio Coding 3
Mode extension : CM (complete main)
Format settings, Endianness : Big
Codec ID : A_AC3
Duration : 1h 1mn
Bit rate mode : Constant
Bit rate : 640 Kbps
Channel(s) : 6 channels
Channel positions : Front: L C R, Side: L R, LFE
Sampling rate : 48.0 KHz
Bit depth : 16 bits
Compression mode : Lossy
Stream size : 280 MiB (9%)
Title : Парад Победы Москва - Красная Площадь (2013)-alE13_Rus
Language : Russian
						
Парад Победы Москва - Красная Площадь (2013)-alE13/Nowy folder/Парад Победы Москва - Красная Площадь (2013) -alE13 (1)-011.mkv 36.729 MB
Парад Победы Москва - Красная Площадь (2013)-alE13/Nowy folder/Парад Победы Москва - Красная Площадь (2013) -alE13 (1)-022.mkv 36.429 MB
Парад Победы Москва - Красная Площадь (2013)-alE13/Nowy folder/Парад Победы Москва - Красная Площадь (2013) -alE13 (1)-023.mkv 34.959 MB
Gathering some info...

Register and log in Isohunt and see no captcha anymore!

4000 symbols left
Hash 6b2f7f69b1f2b0ab42bd00fd63beadf9b0fc39ae

Related torrents for "Парад Победы Москва - Красная Площадь (2013)-alE13"

Torrent search:

2013