imdb
rating

6.1
Hansel & Gretel: Witch Hunters

Hansel & Gretel: Witch Hunters (2013)

Action, Fantasy, Horror

Full description
quality   bd dvdrip x264 hd dvdr

Hansel and Gretel Witch Hunters (2013) REPACK 1080P 6CH AC3 $MURDER$

Size 1.35 GB   9 seeders     Added 2013-05-11 06:20:36

Stream torrent
Starting‥ You need BitLord! Get it from 1BitLord.com
To download or stream you need BitLord. Visit them at BitLord.com
							http://www.imdb.com/title/tt1428538/General
Complete name : Hansel and Gretel Witch Hunters (2013) REPACK 1080P 6CH AC3 $MURDER$.mkv
Format : Matroska
Format version : Version 4 / Version 2
File size : 1.22 GiB
Duration : 1h 27mn
Overall bit rate : 1 983 Kbps
Encoded date : UTC 2013-05-10 11:33:46
Encoder : DOCMURDER82

Video
ID : 1
Format : AVC
Format/Info : Advanced Video Codec
Format profile : High@L3.0
Format settings, CABAC : No
Format settings, ReFrames : 1 frame
Codec ID : V_MPEG4/ISO/AVC
Duration : 1h 27mn
Bit rate : 1 800 Kbps
Width : 1 920 pixels
Height : 804 pixels
Display aspect ratio : 2.35:1
Frame rate : 29.970 fps
Color space : YUV
Chroma subsampling : 4:2:0
Bit depth : 8 bits
Scan type : Progressive
Bits/(Pixel*Frame) : 0.039
Stream size : 1.08 GiB (88%)
Writing library : x264 core 
Default : Yes
Forced : No

Audio
ID : 2
Format : AC-3
Format/Info : Audio Coding 3
Mode extension : CM (complete main)
Codec ID : A_AC3
Duration : 1h 27mn
Bit rate mode : Constant
Bit rate : 192 Kbps
Channel(s) : 4 channels
Channel positions : Front: L R, Side: L R
Sampling rate : 48.0 KHz
Bit depth : 16 bits
Compression mode : Lossy
Delay relative to video : -67ms
Stream size : 121 MiB (10%)
Default : Yes
Forced : No

screenz
Hansel and Gretel Witch Hunters (2013) REPACK 1080P 6CH AC3 $MURDER$/Hansel and Gretel Witch Hunters (2013) REPACK 1080P 6CH AC3 $MURDER$.mkv 1.308 GB
Hansel and Gretel Witch Hunters (2013) REPACK 1080P 6CH AC3 $MURDER$/sample.ts 30.029 MB
Hansel and Gretel Witch Hunters (2013) REPACK 1080P 6CH AC3 $MURDER$/vlcsnap-2013-05-10-13h17m01s11.png 2.544 MB
Gathering some info...

Register and log in Isohunt and see no captcha anymore!

4000 symbols left
Hash 90bf7da740ecbf6c749fd0ac177c8fa1a4eeba11

Related torrents for "Hansel and Gretel Witch Hunters (2013) REPACK 1080P 6CH AC3 $MURDER$"

Torrent search:

fullhd 2013