Gippi-2013- HD SCam Rip 1Cd -MTR Dev

Size 570.487 MB   0 seeders     Added 2013-05-11 14:50:25

Stream torrent
Starting‥ You need BitLord! Get it from 1BitLord.com
To download or stream you need BitLord. Visit them at BitLord.com
Gippi_2013_HD_SCam_Rip_1Cd_MTR_Dev[MastiTorrents.com]
'Gippi'-2013- SCam Rip - MPEG.VOB 
[TABLE="class: ncode_imageresizer_warning"]
[TR]
[TD="class: td1, width: 20"][/TD]
[TD="class: td2"]Click this bar to view the full image.[/TD]
[/TR]
[/TABLE]
General
Format : MPEG-PS
File size : 544 MiB
Duration : 1h 28mn
Overall bit rate mode : Variable
Overall bit rate : 855 Kbps
Video
ID : 224 (0xE0)
Format : MPEG Video
Format version : Version 2
Format profile : Main@Main
Format settings, BVOP : Yes
Format settings, Matrix : Default
Format settings, GOP : M=3, N=13
Duration : 1h 28mn
Bit rate mode : Variable
Bit rate : 710 Kbps
Maximum bit rate : 9 672 Kbps
Width : 352 pixels
Height : 288 pixels
Display aspect ratio : 4:3
Frame rate : 25.000 fps
Standard : PAL
Color space : YUV
Chroma subsampling : 4:2:0
Bit depth : 8 bits
Scan type : Progressive
Compression mode : Lossy
Bits/(Pixel*Frame) : 0.280
Stream size : 452 MiB (83%)
Audio
ID : 192 (0xC0)
Format : MPEG Audio
Format version : Version 1
Format profile : Layer 2
Duration : 1h 28mn
Bit rate mode : Constant
Bit rate : 128 Kbps
Channel(s) : 2 channels
Sampling rate : 48.0 KHz
Compression mode : Lossy
Stream size : 81.4 MiB (15%)
Thumbnails
[TABLE="class: ncode_imageresizer_warning"]
[TR]
[TD="class: td1, width: 20"][/TD]
[TD="class: td2"]Click this bar to view the full image.[/TD]
[/TR]
[/TABLE]
[RIGHT][/RIGHT]
Gippi-2013- HD SCam Rip 1Cd -MTR Dev/'Gippi'-2013- SCam Rip - MPEG.VOB 570.487 MB
Gathering some info...

Register and log in Isohunt and see no captcha anymore!

4000 symbols left
Hash 36d275b07e24286dbbce5a92066fb9f6dc748a36