Touch

Touch (2012)

Drama

Full description

Touch S02E13 Leviathan HDTV 720p 1280X720 mpg4

Size 517.416 MB   0 seeders     Added 2013-05-11 17:02:37

Stream torrent
Starting‥ You need BitLord! Get it from BitLord.com
To download or stream you need BitLord. Visit them at BitLord.com
							 Leviathan
As Aster Corps closes in on the completion of the number sequence that could catapult them to the top of the global economy, determined executive Nicole Farington stops at nothing with her two new test subjects. Meanwhile, Martin and Trevor are on an intense mission of their own to interrogate Aster Corps heavy Tanner for answers. As Jake and Amelia remain at the epicenter of these critical events, it's a race against time for Martin to save them before Aster Corps changes the world forever.
General
Complete name : Touch S02E13 Leviathan HDTV 720p 1280X720.mp4
Format : MPEG-4
Format profile : Base Media
Codec ID : isom
File size : 491 MiB
Duration : 43mn 41s
Overall bit rate : 1 570 Kbps
Writing application : Lavf54.59.106
Video
ID : 1
Format : AVC
Format/Info : Advanced Video Codec
Format profile : High@L3.1
Format settings, CABAC : Yes
Format settings, ReFrames : 5 frames
Codec ID : avc1
Codec ID/Info : Advanced Video Coding
Duration : 43mn 41s
Bit rate mode : Variable
Bit rate : 1 436 Kbps
Width : 1 280 pixels
Height : 720 pixels
Display aspect ratio : 16:9
Frame rate mode : Variable
Frame rate : 23.976 fps
Minimum frame rate : 1.255 fps
Maximum frame rate : 1 000.000 fps
Color space : YUV
Chroma subsampling : 4:2:0
Bit depth : 8 bits
Scan type : Progressive
Bits/(Pixel*Frame) : 0.065
Stream size : 449 MiB (91%)
Audio
ID : 2
Format : AAC
Format/Info : Advanced Audio Codec
Format profile : LC
Codec ID : 40
Duration : 43mn 41s
Bit rate mode : Constant
Bit rate : 128 Kbps
Channel(s) : 2 channels
Channel positions : Front: L R
Sampling rate : 48.0 KHz
Compression mode : Lossy
Stream size : 40.0 MiB (8%)
Touch S02E13 Leviathan HDTV 720p 1280X720 mpg4/Touch S02E13 Leviathan HDTV 720p 1280X720.mp4 514.466 MB
Touch S02E13 Leviathan HDTV 720p 1280X720 mpg4/vlcsnap-2013-05-11-04h39m07s184.png 1.145 MB
Touch S02E13 Leviathan HDTV 720p 1280X720 mpg4/vlcsnap-2013-05-11-04h39m57s163.png 929.21 KB
Gathering some info...

Register and log in Isohunt and see no captcha anymore!

4000 symbols left
Hash 304c5025f31559c9569558a93d1375e21e8cf6c3

Related torrents for "Touch S02E13 Leviathan HDTV 720p 1280X720 mpg4"

Torrent search:

season 02 hdtv hd episode 13 2013