Escape From Planet Earth 2013 R5 Tru Line XViD-Devildeeds

Size 862.928 MB   0 seeders     Added 2013-05-11 23:50:25

Stream torrent
Starting‥ You need BitLord! Get it from BitLord.com
To download or stream you need BitLord. Visit them at BitLord.com
Blue alien named Scorch(Brendan Fraser) is quite the thrill seeker, every time he goes on a mission. With his brother Gary(Rob Corddry) who is behind the controls guiding him on the missions, Gary is not a thrill seeker like his brother, they are from the planet BAAB. Scorch gets a new mission, to go the forbidden planet AKA Earth. Gary refuses to go along with it. Cause he is tired of being in his brothers shadow. When Scorch gets captured when he does arrive on earth, it's up to Gary to rescue him, but will he?
The animation is almost up there with Wreck It Ralph. The jokes seem run themselves into the ground. Most of the time instead of trying to have a story, I feel it was going more for satire. Not that it was terrible, but not has good as Monters Vs Aliens(2009). Brendan Fraser and Rob Corddry are alright in voice casting.
cropped and resized vid a bit...ran slight denoiser and tweeked colors a bit...made 90+ cuts to the Line,and filterd it to get more punch on low end...also re-mixed it to clean up any slight noise that was present...muxed it back to our vid and done....
Encoder..Devildeeds
Sources-R5 BRRip/BruceBanner/ToothFairy
Complete name : Escape from planet Earth 2013
Format : AVI
Format/Info : Audio Video Interleave
File size : 808 MiB
Duration : 1h 22mn
Overall bit rate : 1 370 Kbps
Writing application : VirtualDubMod 1.5.10.2 (build 2540/release)
Writing library : VirtualDub build 32842/release
Video
ID : 0
Format : MPEG-4 Visual
Format profile : Advanced Simple@L5
Format settings, BVOP : 2
Format settings, QPel : No
Format settings, GMC : No warppoints
Format settings, Matrix : Default (H.263)
Muxing mode : Packed bitstream
Codec ID : XVID
Codec ID/Hint : XviD
Duration : 1h 22mn
Bit rate : 1 230 Kbps
Width : 700 pixels
Height : 304 pixels
Display aspect ratio : 2.35:1
Frame rate : 23.976 fps
Color space : YUV
Chroma subsampling : 4:2:0
Bit depth : 8 bits
Scan type : Progressive
Compression mode : Lossy
Bits/(Pixel*Frame) : 0.241
Stream size : 725 MiB (90%)
Writing library : XviD 64
Audio
ID : 1
Format : MPEG Audio
Format version : Version 1
Format profile : Layer 3
Mode : Joint stereo
Mode extension : MS Stereo
Codec ID : 55
Codec ID/Hint : MP3
Duration : 1h 22mn
Bit rate mode : Constant
Bit rate : 128 Kbps
Channel(s) : 2 channels
Sampling rate : 44.1 KHz
Compression mode : Lossy
Stream size : 75.5 MiB (9%)
Alignment : Aligned on interleaves
Interleave, duration : 26 ms (0.63 video frame)
Interleave, preload duration : 522 ms
Writing library : LAME3.98.2
2 Samples Included..Enjoy
Special Thanks To Mr Deeds On This We Were Gonna Use The OFFLiNE Encode But Decided Considering
All The Work Put In..He Deserves Majority Of The C
Escape From Planet Earth 2013 R5 Tru Line XViD-Devildeeds/sample.avi 7.312 MB
Escape From Planet Earth 2013 R5 Tru Line XViD-Devildeeds/sample 2.avi 8.746 MB
Escape From Planet Earth 2013 R5 Tru Line XViD-Devildeeds/Escape from planet Earth 2013-Devildeeds.avi 846.87 MB
Gathering some info...

Register and log in Isohunt and see no captcha anymore!

4000 symbols left
Hash c1b4cbc372189b74cf8b8556a56cfc84154e970a