imdb
rating

6.8
The Square

The Square (2008)

Crime, Drama, Thriller

Full description

Thompson Square - If I Didn't Have You [Music Video] 720p [Sbyky].mp4

Size 34.281 MB   0 seeders     Added 2013-05-12 01:20:38

Stream torrent
Starting‥ You need BitLord! Get it from BitLord.com
To download or stream you need BitLord. Visit them at BitLord.com
							
General
Complete name : Thompson Square - If I Didn't Have You [Music Video] 720p [Sbyky].mp4
Format : MPEG-4
Format profile : Base Media / Version 2
Codec ID : mp42
File size : 32.7 MiB
Duration : 3mn 22s
Overall bit rate mode : Variable
Overall bit rate : 1 356 Kbps
Encoded date : UTC 2013-04-10 23:34:05
Tagged date : UTC 2013-04-10 23:34:05
Video
ID : 1
Format : AVC
Format/Info : Advanced Video Codec
Format profile : High@L3.1
Format settings, CABAC : Yes
Format settings, ReFrames : 1 frame
Codec ID : avc1
Codec ID/Info : Advanced Video Coding
Duration : 3mn 22s
Bit rate : 1 161 Kbps
Maximum bit rate : 2 766 Kbps
Width : 1 280 pixels
Height : 720 pixels
Display aspect ratio : 16:9
Frame rate mode : Constant
Frame rate : 29.970 fps
Color space : YUV
Chroma subsampling : 4:2:0
Bit depth : 8 bits
Scan type : Progressive
Bits/(Pixel*Frame) : 0.042
Stream size : 28.0 MiB (86%)
Tagged date : UTC 2013-04-10 23:34:10
Audio
ID : 2
Format : AAC
Format/Info : Advanced Audio Codec
Format profile : LC
Codec ID : 40
Duration : 3mn 22s
Bit rate mode : Variable
Bit rate : 192 Kbps
Maximum bit rate : 202 Kbps
Channel(s) : 2 channels
Channel positions : Front: L R
Sampling rate : 44.1 KHz
Compression mode : Lossy
Stream size : 4.63 MiB (14%)
Title : IsoMedia File Produced by Google, 5-11-2011
Encoded date : UTC 2013-04-10 23:34:08
Tagged date : UTC 2013-04-10 23:34:10
Shared By Sbyky
Thompson Square - If I Didn't Have You [Music Video] 720p [Sbyky].mp4 34.281 MB
Gathering some info...

Register and log in Isohunt and see no captcha anymore!

4000 symbols left
Hash 2339b23bb1f3926b596146a39a431cff0a06ed2b

Related torrents for "Thompson Square - If I Didn't Have You [Music Video] 720p [Sbyky].mp4"

Torrent search:

hd