imdb
rating

7.5
Chris

Chris (2007)

Full description
quality   h264 x264 fullhd hd

Chris Brown - Fine China [Music Video] 1080p [Sbyky].mp4

Size 132.954 MB   31 seeders     Added 2013-05-12 01:39:37

Stream torrent
Starting‥ You need BitLord! Get it from 1BitLord.com
To download or stream you need BitLord. Visit them at BitLord.com
							
General
Complete name : Chris Brown - Fine China [Music Video] 1080p [Sbyky].mp4
Format : MPEG-4
Format profile : Base Media / Version 2
Codec ID : mp42
File size : 127 MiB
Duration : 6mn 16s
Overall bit rate mode : Variable
Overall bit rate : 2 824 Kbps
Encoded date : UTC 2013-04-08 11:41:26
Tagged date : UTC 2013-04-08 11:41:26
Video
ID : 1
Format : AVC
Format/Info : Advanced Video Codec
Format profile : High@L4.0
Format settings, CABAC : Yes
Format settings, ReFrames : 1 frame
Codec ID : avc1
Codec ID/Info : Advanced Video Coding
Duration : 6mn 16s
Bit rate : 2 630 Kbps
Maximum bit rate : 4 616 Kbps
Width : 1 920 pixels
Height : 1 080 pixels
Display aspect ratio : 16:9
Frame rate mode : Constant
Frame rate : 23.976 fps
Color space : YUV
Chroma subsampling : 4:2:0
Bit depth : 8 bits
Scan type : Progressive
Bits/(Pixel*Frame) : 0.053
Stream size : 118 MiB (93%)
Tagged date : UTC 2013-04-08 11:42:06
Audio
ID : 2
Format : AAC
Format/Info : Advanced Audio Codec
Format profile : LC
Codec ID : 40
Duration : 6mn 16s
Bit rate mode : Variable
Bit rate : 192 Kbps
Maximum bit rate : 202 Kbps
Channel(s) : 2 channels
Channel positions : Front: L R
Sampling rate : 44.1 KHz
Compression mode : Lossy
Stream size : 8.62 MiB (7%)
Title : IsoMedia File Produced by Google, 5-11-2011
Encoded date : UTC 2013-04-08 11:41:49
Tagged date : UTC 2013-04-08 11:42:06
Shared By Sbyky
Chris Brown - Fine China [Music Video] 1080p [Sbyky].mp4 132.954 MB
Gathering some info...

Register and log in Isohunt and see no captcha anymore!

4000 symbols left
Hash 79629f21a01b2ec460395a1438327d02d1be9471

Related torrents for "Chris Brown - Fine China [Music Video] 1080p [Sbyky].mp4"

Torrent search:

fullhd