imdb
rating

7.5
Chris

Chris (2007)

Full description
quality   h264 x264 fullhd hd

Chris Brown - Fine China [Music Video] 720p [Sbyky].mp4

Size 70.665 MB   7 seeders     Added 2013-05-12 01:40:49

Stream torrent
Starting‥ You need BitLord! Get it from 1BitLord.com
To download or stream you need BitLord. Visit them at BitLord.com
							
General
Complete name : Chris Brown - Fine China [Music Video] 720p [Sbyky].mp4
Format : MPEG-4
Format profile : Base Media / Version 2
Codec ID : mp42
File size : 67.4 MiB
Duration : 6mn 16s
Overall bit rate mode : Variable
Overall bit rate : 1 501 Kbps
Encoded date : UTC 2013-04-08 11:40:45
Tagged date : UTC 2013-04-08 11:40:45
Video
ID : 1
Format : AVC
Format/Info : Advanced Video Codec
Format profile : High@L3.1
Format settings, CABAC : Yes
Format settings, ReFrames : 1 frame
Codec ID : avc1
Codec ID/Info : Advanced Video Coding
Duration : 6mn 16s
Bit rate : 1 307 Kbps
Maximum bit rate : 2 448 Kbps
Width : 1 280 pixels
Height : 720 pixels
Display aspect ratio : 16:9
Frame rate mode : Constant
Frame rate : 23.976 fps
Color space : YUV
Chroma subsampling : 4:2:0
Bit depth : 8 bits
Scan type : Progressive
Bits/(Pixel*Frame) : 0.059
Stream size : 58.7 MiB (87%)
Tagged date : UTC 2013-04-08 11:40:49
Audio
ID : 2
Format : AAC
Format/Info : Advanced Audio Codec
Format profile : LC
Codec ID : 40
Duration : 6mn 16s
Bit rate mode : Variable
Bit rate : 192 Kbps
Maximum bit rate : 202 Kbps
Channel(s) : 2 channels
Channel positions : Front: L R
Sampling rate : 44.1 KHz
Compression mode : Lossy
Stream size : 8.62 MiB (13%)
Title : IsoMedia File Produced by Google, 5-11-2011
Encoded date : UTC 2013-04-08 11:40:47
Tagged date : UTC 2013-04-08 11:40:49
Shared By Sbyky
Chris Brown - Fine China [Music Video] 720p [Sbyky].mp4 70.665 MB
Gathering some info...

Register and log in Isohunt and see no captcha anymore!

4000 symbols left
Hash 7dd782b06ea5e29d8cdaa5a483c17cbb04642638

Related torrents for "Chris Brown - Fine China [Music Video] 720p [Sbyky].mp4"

Torrent search:

hd