Ciara - Body Party [Music Video] 720p [Sbyky].mp4

Size 49.554 MB   11 seeders     Added 2013-05-12 01:50:33

Stream torrent
Starting‥ You need BitLord! Get it from BitLord.com
To download or stream you need BitLord. Visit them at BitLord.com
General
Complete name : Ciara - Body Party [Music Video] 720p [Sbyky].mp4
Format : MPEG-4
Format profile : Base Media / Version 2
Codec ID : mp42
File size : 47.3 MiB
Duration : 4mn 51s
Overall bit rate mode : Variable
Overall bit rate : 1 361 Kbps
Encoded date : UTC 2013-04-24 04:21:15
Tagged date : UTC 2013-04-24 04:21:15
Video
ID : 1
Format : AVC
Format/Info : Advanced Video Codec
Format profile : [email protected]
/*  */

Format settings, CABAC : Yes
Format settings, ReFrames : 1 frame
Format settings, GOP : M=1, N=60
Codec ID : avc1
Codec ID/Info : Advanced Video Coding
Duration : 4mn 51s
Bit rate : 1 167 Kbps
Maximum bit rate : 3 360 Kbps
Width : 1 280 pixels
Height : 720 pixels
Display aspect ratio : 16:9
Frame rate mode : Constant
Frame rate : 23.976 fps
Color space : YUV
Chroma subsampling : 4:2:0
Bit depth : 8 bits
Scan type : Progressive
Bits/(Pixel*Frame) : 0.053
Stream size : 40.5 MiB (86%)
Tagged date : UTC 2013-04-24 04:21:22
Audio
ID : 2
Format : AAC
Format/Info : Advanced Audio Codec
Format profile : LC
Codec ID : 40
Duration : 4mn 51s
Bit rate mode : Variable
Bit rate : 192 Kbps
Maximum bit rate : 202 Kbps
Channel(s) : 2 channels
Channel positions : Front: L R
Sampling rate : 44.1 KHz
Compression mode : Lossy
Stream size : 6.67 MiB (14%)
Title : IsoMedia File Produced by Google, 5-11-2011
Encoded date : UTC 2013-04-24 04:21:20
Tagged date : UTC 2013-04-24 04:21:22
Shared By Sbyky
Ciara - Body Party [Music Video] 720p [Sbyky].mp4 49.554 MB
Gathering some info...

Register and log in Isohunt and see no captcha anymore!

4000 symbols left
Hash 963cba9fc9888987af6ce899690f9164bf444336

Related torrents for "Ciara - Body Party [Music Video] 720p [Sbyky].mp4"