Fun. - Carry On [Music Video] 1080p [Sbyky].mp4

Size 166.173 MB   4 seeders     Added 2013-05-12 01:50:38

Stream torrent
Starting‥ You need BitLord! Get it from 1BitLord.com
To download or stream you need BitLord. Visit them at BitLord.com
General
Complete name : Fun. - Carry On [Music Video] 1080p [Sbyky].mp4
Format : MPEG-4
Format profile : Base Media / Version 2
Codec ID : mp42
File size : 158 MiB
Duration : 5mn 44s
Overall bit rate mode : Variable
Overall bit rate : 3 860 Kbps
Encoded date : UTC 2013-04-08 12:45:35
Tagged date : UTC 2013-04-08 12:45:35
Video
ID : 1
Format : AVC
Format/Info : Advanced Video Codec
Format profile : [email protected]
/*  */

Format settings, CABAC : Yes
Format settings, ReFrames : 1 frame
Codec ID : avc1
Codec ID/Info : Advanced Video Coding
Duration : 5mn 44s
Bit rate : 3 666 Kbps
Maximum bit rate : 6 767 Kbps
Width : 1 920 pixels
Height : 1 080 pixels
Display aspect ratio : 16:9
Frame rate mode : Constant
Frame rate : 23.976 fps
Color space : YUV
Chroma subsampling : 4:2:0
Bit depth : 8 bits
Scan type : Progressive
Bits/(Pixel*Frame) : 0.074
Stream size : 150 MiB (95%)
Tagged date : UTC 2013-04-08 12:45:54
Audio
ID : 2
Format : AAC
Format/Info : Advanced Audio Codec
Format profile : LC
Codec ID : 40
Duration : 5mn 44s
Bit rate mode : Variable
Bit rate : 192 Kbps
Maximum bit rate : 202 Kbps
Channel(s) : 2 channels
Channel positions : Front: L R
Sampling rate : 44.1 KHz
Compression mode : Lossy
Stream size : 7.88 MiB (5%)
Title : IsoMedia File Produced by Google, 5-11-2011
Encoded date : UTC 2013-04-08 12:45:49
Tagged date : UTC 2013-04-08 12:45:54
Shared By Sbyky
Fun. - Carry On [Music Video] 1080p [Sbyky].mp4 166.173 MB
Gathering some info...

Register and log in Isohunt and see no captcha anymore!

4000 symbols left
Hash 836c14be3f7a9296362b3e23b6672f0f4a0dce23

Related torrents for "Fun. - Carry On [Music Video] 1080p [Sbyky].mp4"