Fun. - Carry On [Music Video] 720p [Sbyky].mp4

Size 85.886 MB   0 seeders     Added 2013-05-12 01:50:38

Stream torrent
Starting‥ You need BitLord! Get it from 1BitLord.com
To download or stream you need BitLord. Visit them at BitLord.com
General
Complete name : Fun. - Carry On [Music Video] 720p [Sbyky].mp4
Format : MPEG-4
Format profile : Base Media / Version 2
Codec ID : mp42
File size : 81.9 MiB
Duration : 5mn 44s
Overall bit rate mode : Variable
Overall bit rate : 1 995 Kbps
Encoded date : UTC 2013-04-08 12:44:12
Tagged date : UTC 2013-04-08 12:44:12
Video
ID : 1
Format : AVC
Format/Info : Advanced Video Codec
Format profile : [email protected]
/*  */

Format settings, CABAC : Yes
Format settings, ReFrames : 1 frame
Codec ID : avc1
Codec ID/Info : Advanced Video Coding
Duration : 5mn 44s
Bit rate : 1 801 Kbps
Maximum bit rate : 3 450 Kbps
Width : 1 280 pixels
Height : 720 pixels
Display aspect ratio : 16:9
Frame rate mode : Constant
Frame rate : 23.976 fps
Color space : YUV
Chroma subsampling : 4:2:0
Bit depth : 8 bits
Scan type : Progressive
Bits/(Pixel*Frame) : 0.081
Stream size : 73.9 MiB (90%)
Tagged date : UTC 2013-04-08 12:44:19
Audio
ID : 2
Format : AAC
Format/Info : Advanced Audio Codec
Format profile : LC
Codec ID : 40
Duration : 5mn 44s
Bit rate mode : Variable
Bit rate : 192 Kbps
Maximum bit rate : 202 Kbps
Channel(s) : 2 channels
Channel positions : Front: L R
Sampling rate : 44.1 KHz
Compression mode : Lossy
Stream size : 7.88 MiB (10%)
Title : IsoMedia File Produced by Google, 5-11-2011
Encoded date : UTC 2013-04-08 12:44:16
Tagged date : UTC 2013-04-08 12:44:19
Shared By Sbyky
Fun. - Carry On [Music Video] 720p [Sbyky].mp4 85.886 MB
Gathering some info...

Register and log in Isohunt and see no captcha anymore!

4000 symbols left
Hash 6a4ef238979c60168c7d87a21836a2966f4eedef

Related torrents for "Fun. - Carry On [Music Video] 720p [Sbyky].mp4"