Thompson Square - If I Didn't Have You [Music Video] 1080p [Sbyky].mp4

Size 65.116 MB   0 seeders     Added 2013-05-12 01:51:34

Stream torrent
Starting‥ You need BitLord! Get it from BitLord.com
10
To download or stream you need BitLord. Visit them at BitLord.com
General
Complete name : Thompson Square - If I Didn't Have You [Music Video] 1080p [Sbyky].mp4
Format : MPEG-4
Format profile : Base Media / Version 2
Codec ID : mp42
File size : 62.1 MiB
Duration : 3mn 22s
Overall bit rate mode : Variable
Overall bit rate : 2 575 Kbps
Encoded date : UTC 2013-04-10 23:34:55
Tagged date : UTC 2013-04-10 23:34:55
Video
ID : 1
Format : AVC
Format/Info : Advanced Video Codec
Format profile : [email protected]
/*  */

Format settings, CABAC : Yes
Format settings, ReFrames : 1 frame
Codec ID : avc1
Codec ID/Info : Advanced Video Coding
Duration : 3mn 22s
Bit rate : 2 381 Kbps
Maximum bit rate : 5 399 Kbps
Width : 1 920 pixels
Height : 1 080 pixels
Display aspect ratio : 16:9
Frame rate mode : Constant
Frame rate : 29.970 fps
Color space : YUV
Chroma subsampling : 4:2:0
Bit depth : 8 bits
Scan type : Progressive
Bits/(Pixel*Frame) : 0.038
Stream size : 57.4 MiB (92%)
Tagged date : UTC 2013-04-10 23:35:06
Audio
ID : 2
Format : AAC
Format/Info : Advanced Audio Codec
Format profile : LC
Codec ID : 40
Duration : 3mn 22s
Bit rate mode : Variable
Bit rate : 192 Kbps
Maximum bit rate : 202 Kbps
Channel(s) : 2 channels
Channel positions : Front: L R
Sampling rate : 44.1 KHz
Compression mode : Lossy
Stream size : 4.63 MiB (7%)
Title : IsoMedia File Produced by Google, 5-11-2011
Encoded date : UTC 2013-04-10 23:35:03
Tagged date : UTC 2013-04-10 23:35:06
Shared By Sbyky
Thompson Square - If I Didn't Have You [Music Video] 1080p [Sbyky].mp4 65.116 MB
Gathering some info...

Register and log in Isohunt and see no captcha anymore!

4000 symbols left
Hash f096cb191c0363cfefc87e1b8ba1aaa85bd9e54b