3 A.M. 3D-wk3d.mp4

Size 826.409 MB   0 seeders     Added 2013-05-12 14:07:34

Stream torrent
Starting‥ You need BitLord! Get it from BitLord.com
To download or stream you need BitLord. Visit them at BitLord.com
ENGLISH SUBS HARD-CODED
Language.............: Thai
Subtitles............: EnglishENGLISH SUBS HARD-CODED
Language.............: Thai
Subtitles............: English 3 A.M. 3D (2012) @ IMDb
Thailand's latest horror omnibus is made up of three chilling stories. Two sisters who own a wig shop are haunted by a female ghost whose hair were made into one of the wigs on sale. A funeral home employee falls in love with a female corpse who died alongside her fiance in an accident just before their wedding. Two company directors who love playing scary pranks on their employees finally get their comeuppance when they themselves face a real ghost. Three stories set at 3 AM, the scariest hour of the night, where all spirits are free to roam.
Format                                   : MPEG-4
Format profile                           : Base Media / Version 2
Codec ID                                 : mp42
File size                                : 788 MiB
Duration                                 : 1h 34mn
Overall bit rate mode                    : Variable
Overall bit rate                         : 1 165 Kbps
Writing application                      : HandBrake 0.9.8 2012071700
Video
ID                                       : 1
Format                                   : AVC
Format/Info                              : Advanced Video Codec
Format profile                           : Main@L3.0
Format settings, CABAC                   : Yes
Format settings, ReFrames                : 4 frames
Codec ID                                 : avc1
Codec ID/Info                            : Advanced Video Coding
Duration                                 : 1h 34mn
Bit rate mode                            : Variable
Bit rate                                 : 1 000 Kbps
Width                                    : 720 pixels
Height                                   : 480 pixels
Display aspect ratio                     : 3:2
Frame rate mode                          : Variable
Frame rate                               : 23.976 fps
Minimum frame rate                       : 23.974 fps
Maximum frame rate                       : 23.981 fps
Standard                                 : NTSC
Color space                              : YUV
Chroma subsampling                       : 4:2:0
Bit depth                                : 8 bits
Scan type                                : Progressive
Bits/(Pixel*Frame)                       : 0.121
Stream size                              : 676 MiB (86%)
Writing library                          : x264 core 120
Audio
ID                                       : 2
Format                                   : AAC
Format/Info                              : Advanced Audio Codec
Format profile                           : LC
Codec ID                                 : 40
Duration                                 : 1h 34mn
Bit rate mode                            : Variable
Bit rate                                 : 160 Kbps
Maximum bit rate                         : 321 Kbps
Channel(s)                               : 2 channels
Channel positions                        : Front: L R
Sampling rate                            : 48.0 KHz
Compression mode                         : Lossy
Delay relative to video                  : 83ms
Stream size                              : 108 MiB (14%)
3 A.M. 3D-wk3d.mp4 826.409 MB
Gathering some info...

Register and log in Isohunt and see no captcha anymore!

4000 symbols left
Hash 61d153fe866f7d0b2f74796f790096316eb9e8ff