imdb
rating

6.6
Shanghai Noon

Shanghai Noon (2000)

Action, Adventure, Comedy, Western

Full description
quality   bd dvdrip hd fullhd x264 h264 hdtv

Shanghai Noon (2000) BRRip x264 {Hindi} [JOKER]

Size 449.595 MB   11 seeders     Added 2013-05-12 14:58:34

Stream torrent
Starting‥ You need BitLord! Get it from BitLord.com
To download or stream you need BitLord. Visit them at BitLord.com
							Shanghai Noon
[JOKER]GeneralComplete name : Shanghai Noon (2000) BRRip x264 {Hindi} [JOKER].mkv
Format : Matroska
Format version : Version 2
File size : 420 MiB
Duration : 1h 41mn
Overall bit rate : 578 Kbps
Encoded date : UTC 2013-05-11 11:42:54
Writing application : mkvmerge v5.6.0 ('Kenya Kane') built on May 27 2012 16:44:04
Writing library : libebml v1.2.3 + libmatroska v1.3.0
VideoID : 1
Format : AVC
Format/Info : Advanced Video Codec
Format profile : Main@L3.0
Format settings, CABAC : Yes
Format settings, ReFrames : 4 frames
Muxing mode : Header stripping
Codec ID : V_MPEG4/ISO/AVC
Duration : 1h 41mn
Bit rate : 450 Kbps
Width : 720 pixels
Height : 400 pixels
Display aspect ratio : 16:9
Frame rate mode : Constant
Frame rate : 23.976 fps
Color space : YUV
Chroma subsampling : 4:2:0
Bit depth : 8 bits
Scan type : Progressive
Bits/(Pixel*Frame) : 0.065
Stream size : 318 MiB (76%)
Title : [JOKER]
Writing library : x264 core 120Audio
ID : 2
Format : MPEG Audio
Format version : Version 1
Format profile : Layer 3
Mode : Joint stereo
Mode extension : MS Stereo
Muxing mode : Header stripping
Codec ID : A_MPEG/L3
Codec ID/Hint : MP3
Duration : 1h 41mn
Bit rate mode : Constant
Bit rate : 128 Kbps
Channel(s) : 2 channels
Sampling rate : 44.1 KHz
Compression mode : Lossy
Stream size : 93.0 MiB (22%)
Title : [JOKERr]
Language : Hindi
Default : Yes
Forced : No
sample included in torrent
						
Shanghai Noon (2000) BRRip x264 {Hindi} [JOKER]/Shanghai Noon (2000) BRRip x264 {Hindi} [JOKER].mkv 439.88 MB
Shanghai Noon (2000) BRRip x264 {Hindi} [JOKER]/[SAMPLE] Shanghai Noon (2000) BRRip x264 {Hindi} [JOKER].mkv 9.715 MB
Shanghai Noon (2000) BRRip x264 {Hindi} [JOKER]/Torrent Downloaded From ExtraTorrent.com.txt 353 B
Gathering some info...

Register and log in Isohunt and see no captcha anymore!

4000 symbols left
Hash 8baf461c49988c7e2780514464deaca52a8b1908

Related torrents for "Shanghai Noon (2000) BRRip x264 {Hindi} [JOKER]"

Torrent search:

2000 x264 hindi bd