Blurred Lines

Blurred Lines (2015)

Full description
quality   fullhd

Robin Thicke Ft. T.I. & Pharrell - Blurred Lines [Music Video] 1080p [Sbyky].mp4

Size 114.017 MB   88 seeders     Added 2013-05-12 17:58:35

Stream torrent
Starting‥ You need BitLord! Get it from 1BitLord.com
10
To download or stream you need BitLord. Visit them at BitLord.com
							
General
Complete name : Robin Thicke Ft. T.I. & Pharrell - Blurred Lines [Music Video] 1080p [Sbyky].mp4
Format : MPEG-4
Format profile : Base Media / Version 2
Codec ID : mp42
File size : 109 MiB
Duration : 4mn 31s
Overall bit rate mode : Variable
Overall bit rate : 3 356 Kbps
Encoded date : UTC 2013-04-08 14:36:58
Tagged date : UTC 2013-04-08 14:36:58
Video
ID : 1
Format : AVC
Format/Info : Advanced Video Codec
Format profile : High@L4.0
Format settings, CABAC : Yes
Format settings, ReFrames : 1 frame
Codec ID : avc1
Codec ID/Info : Advanced Video Coding
Duration : 4mn 31s
Bit rate : 3 162 Kbps
Maximum bit rate : 5 847 Kbps
Width : 1 920 pixels
Height : 1 080 pixels
Display aspect ratio : 16:9
Frame rate mode : Constant
Frame rate : 23.976 fps
Color space : YUV
Chroma subsampling : 4:2:0
Bit depth : 8 bits
Scan type : Progressive
Bits/(Pixel*Frame) : 0.064
Stream size : 102 MiB (94%)
Tagged date : UTC 2013-04-08 14:37:15
Audio
ID : 2
Format : AAC
Format/Info : Advanced Audio Codec
Format profile : LC
Codec ID : 40
Duration : 4mn 31s
Bit rate mode : Variable
Bit rate : 192 Kbps
Maximum bit rate : 202 Kbps
Channel(s) : 2 channels
Channel positions : Front: L R
Sampling rate : 44.1 KHz
Compression mode : Lossy
Stream size : 6.22 MiB (6%)
Title : IsoMedia File Produced by Google, 5-11-2011
Encoded date : UTC 2013-04-08 14:37:11
Tagged date : UTC 2013-04-08 14:37:15
Shared By Sbyky
Robin Thicke Ft. T.I. & Pharrell - Blurred Lines [Music Video] 1080p [Sbyky].mp4 114.017 MB
Gathering some info...

Register and log in Isohunt and see no captcha anymore!

4000 symbols left
Hash d168a64ff00e9c72fc6668f6e9e5230417b8457d

Related torrents for "Robin Thicke Ft. T.I. & Pharrell - Blurred Lines [Music Video] 1080p [Sbyky].mp4"

Torrent search:

fullhd