imdb
rating

6.9
Back to 1942

Back to 1942 (2012)

Drama

Full description
quality   hd screener dvd x264 bd fullhd

DJ Pauly D Ft. Jay Sean - Back To Love [Music Video] 1080p [Sbyky].mp4

Size 135.027 MB   0 seeders     Added 2013-05-12 18:40:50

Stream torrent
Starting‥ You need BitLord! Get it from BitLord.com
To download or stream you need BitLord. Visit them at BitLord.com
							
General
Complete name : DJ Pauly D Ft. Jay Sean - Back To Love [Music Video] 1080p [Sbyky].mp4
Format : MPEG-4
Format profile : Base Media / Version 2
Codec ID : mp42
File size : 129 MiB
Duration : 3mn 43s
Overall bit rate mode : Variable
Overall bit rate : 4 843 Kbps
Encoded date : UTC 2013-04-18 04:51:52
Tagged date : UTC 2013-04-18 04:51:52
Video
ID : 1
Format : AVC
Format/Info : Advanced Video Codec
Format profile : High@L4.0
Format settings, CABAC : Yes
Format settings, ReFrames : 1 frame
Format settings, GOP : M=1, N=60
Codec ID : avc1
Codec ID/Info : Advanced Video Coding
Duration : 3mn 43s
Bit rate : 4 649 Kbps
Maximum bit rate : 11.4 Mbps
Width : 1 920 pixels
Height : 1 080 pixels
Display aspect ratio : 16:9
Frame rate mode : Constant
Frame rate : 30.000 fps
Color space : YUV
Chroma subsampling : 4:2:0
Bit depth : 8 bits
Scan type : Progressive
Bits/(Pixel*Frame) : 0.075
Stream size : 124 MiB (96%)
Tagged date : UTC 2013-04-18 04:52:13
Audio
ID : 2
Format : AAC
Format/Info : Advanced Audio Codec
Format profile : LC
Codec ID : 40
Duration : 3mn 43s
Bit rate mode : Variable
Bit rate : 192 Kbps
Maximum bit rate : 202 Kbps
Channel(s) : 2 channels
Channel positions : Front: L R
Sampling rate : 44.1 KHz
Compression mode : Lossy
Stream size : 5.11 MiB (4%)
Title : IsoMedia File Produced by Google, 5-11-2011
Encoded date : UTC 2013-04-18 04:52:07
Tagged date : UTC 2013-04-18 04:52:13
Shared By Sbyky
DJ Pauly D Ft. Jay Sean - Back To Love [Music Video] 1080p [Sbyky].mp4 135.027 MB
Gathering some info...

Register and log in Isohunt and see no captcha anymore!

4000 symbols left
Hash 0609df5d8677de3c626bd0cd992ad4745f66d82d

Related torrents for "DJ Pauly D Ft. Jay Sean - Back To Love [Music Video] 1080p [Sbyky].mp4"

Torrent search:

fullhd