Imagine Dragons - Radioactive [Music Video] 1080p [Sbyky].mp4

Size 92.349 MB   45 seeders     Added 2013-05-12 18:50:52

Stream torrent
Starting‥ You need BitLord! Get it from BitLord.com
To download or stream you need BitLord. Visit them at BitLord.com
General
Complete name : Imagine Dragons - Radioactive [Music Video] 1080p [Sbyky].mp4
Format : MPEG-4
Format profile : Base Media / Version 2
Codec ID : mp42
File size : 88.1 MiB
Duration : 4mn 21s
Overall bit rate mode : Variable
Overall bit rate : 2 830 Kbps
Encoded date : UTC 2013-04-08 11:27:47
Tagged date : UTC 2013-04-08 11:27:47
Video
ID : 1
Format : AVC
Format/Info : Advanced Video Codec
Format profile : [email protected]
/*  */

Format settings, CABAC : Yes
Format settings, ReFrames : 1 frame
Format settings, GOP : M=1, N=48
Codec ID : avc1
Codec ID/Info : Advanced Video Coding
Duration : 4mn 21s
Bit rate : 2 636 Kbps
Maximum bit rate : 8 430 Kbps
Width : 1 920 pixels
Height : 1 080 pixels
Display aspect ratio : 16:9
Frame rate mode : Constant
Frame rate : 23.976 fps
Color space : YUV
Chroma subsampling : 4:2:0
Bit depth : 8 bits
Scan type : Progressive
Bits/(Pixel*Frame) : 0.053
Stream size : 82.0 MiB (93%)
Tagged date : UTC 2013-04-08 11:27:53
Audio
ID : 2
Format : AAC
Format/Info : Advanced Audio Codec
Format profile : LC
Codec ID : 40
Duration : 4mn 21s
Bit rate mode : Variable
Bit rate : 192 Kbps
Maximum bit rate : 202 Kbps
Channel(s) : 2 channels
Channel positions : Front: L R
Sampling rate : 44.1 KHz
Compression mode : Lossy
Stream size : 5.97 MiB (7%)
Title : IsoMedia File Produced by Google, 5-11-2011
Encoded date : UTC 2013-04-08 11:27:51
Tagged date : UTC 2013-04-08 11:27:53
Shared By Sbyky
Imagine Dragons - Radioactive [Music Video] 1080p [Sbyky].mp4 92.349 MB
Gathering some info...

Register and log in Isohunt and see no captcha anymore!

4000 symbols left
Hash 8942aff5fa3f2da0d5ee226f4a14f14c77b10ed5

Related torrents for "Imagine Dragons - Radioactive [Music Video] 1080p [Sbyky].mp4"