J. Cole Ft. Trey Songz - Can't Get Enough [Clean] 1080p [Sbyky].mp4

Size 122.367 MB   0 seeders     Added 2013-05-12 18:50:52

Stream torrent
Starting‥ You need BitLord! Get it from 1BitLord.com
To download or stream you need BitLord. Visit them at BitLord.com
General
Complete name : J. Cole Ft. Trey Songz - Can't Get Enough [Clean] 1080p [Sbyky].mp4
Format : MPEG-4
Format profile : Base Media / Version 2
Codec ID : mp42
File size : 117 MiB
Duration : 4mn 2s
Overall bit rate mode : Variable
Overall bit rate : 4 043 Kbps
Encoded date : UTC 2013-04-27 16:44:36
Tagged date : UTC 2013-04-27 16:44:36
Video
ID : 1
Format : AVC
Format/Info : Advanced Video Codec
Format profile : [email protected]
/*  */

Format settings, CABAC : Yes
Format settings, ReFrames : 1 frame
Format settings, GOP : M=1, N=48
Codec ID : avc1
Codec ID/Info : Advanced Video Coding
Duration : 4mn 2s
Bit rate : 3 848 Kbps
Maximum bit rate : 11.0 Mbps
Width : 1 920 pixels
Height : 1 080 pixels
Display aspect ratio : 16:9
Frame rate mode : Constant
Frame rate : 23.976 fps
Color space : YUV
Chroma subsampling : 4:2:0
Bit depth : 8 bits
Scan type : Progressive
Bits/(Pixel*Frame) : 0.077
Stream size : 111 MiB (95%)
Tagged date : UTC 2013-04-27 16:44:40
Audio
ID : 2
Format : AAC
Format/Info : Advanced Audio Codec
Format profile : LC
Codec ID : 40
Duration : 4mn 2s
Bit rate mode : Variable
Bit rate : 192 Kbps
Maximum bit rate : 202 Kbps
Channel(s) : 2 channels
Channel positions : Front: L R
Sampling rate : 44.1 KHz
Compression mode : Lossy
Stream size : 5.54 MiB (5%)
Title : IsoMedia File Produced by Google, 5-11-2011
Encoded date : UTC 2013-04-27 16:44:39
Tagged date : UTC 2013-04-27 16:44:40
Shared By Sbyky
J. Cole Ft. Trey Songz - Can't Get Enough [Clean] 1080p [Sbyky].mp4 122.367 MB
Gathering some info...

Register and log in Isohunt and see no captcha anymore!

4000 symbols left
Hash 2f42d621522d20f9119c933bf78c18e218b24e32