J. Cole Ft. Trey Songz - Can't Get Enough [Clean] 720p [Sbyky].mp4

Size 68.713 MB   0 seeders     Added 2013-05-12 18:51:37

Stream torrent
Starting‥ You need BitLord! Get it from BitLord.com
To download or stream you need BitLord. Visit them at BitLord.com
General
Complete name : J. Cole Ft. Trey Songz - Can't Get Enough [Clean] 720p [Sbyky].mp4
Format : MPEG-4
Format profile : Base Media / Version 2
Codec ID : mp42
File size : 65.5 MiB
Duration : 4mn 2s
Overall bit rate mode : Variable
Overall bit rate : 2 270 Kbps
Encoded date : UTC 2013-04-27 16:44:25
Tagged date : UTC 2013-04-27 16:44:25
Video
ID : 1
Format : AVC
Format/Info : Advanced Video Codec
Format profile : [email protected]
/*  */

Format settings, CABAC : Yes
Format settings, ReFrames : 1 frame
Codec ID : avc1
Codec ID/Info : Advanced Video Coding
Duration : 4mn 2s
Bit rate : 2 076 Kbps
Maximum bit rate : 5 924 Kbps
Width : 1 280 pixels
Height : 720 pixels
Display aspect ratio : 16:9
Frame rate mode : Constant
Frame rate : 23.976 fps
Color space : YUV
Chroma subsampling : 4:2:0
Bit depth : 8 bits
Scan type : Progressive
Bits/(Pixel*Frame) : 0.094
Stream size : 59.9 MiB (91%)
Tagged date : UTC 2013-04-27 16:44:29
Audio
ID : 2
Format : AAC
Format/Info : Advanced Audio Codec
Format profile : LC
Codec ID : 40
Duration : 4mn 2s
Bit rate mode : Variable
Bit rate : 192 Kbps
Maximum bit rate : 202 Kbps
Channel(s) : 2 channels
Channel positions : Front: L R
Sampling rate : 44.1 KHz
Compression mode : Lossy
Stream size : 5.54 MiB (8%)
Title : IsoMedia File Produced by Google, 5-11-2011
Encoded date : UTC 2013-04-27 16:44:28
Tagged date : UTC 2013-04-27 16:44:29
Shared By Sbyky
J. Cole Ft. Trey Songz - Can't Get Enough [Clean] 720p [Sbyky].mp4 68.713 MB
Gathering some info...

Register and log in Isohunt and see no captcha anymore!

4000 symbols left
Hash cb0b027f1c1bf367248d9269e06cf46a4ba0ed7e