Robin Thicke Ft. T.I. & Pharrell - Blurred Lines [Music Video] 720p [Sbyky].mp4

Size 64.264 MB   0 seeders     Added 2013-05-12 18:51:37

Stream torrent
Starting‥ You need BitLord! Get it from 1BitLord.com
To download or stream you need BitLord. Visit them at BitLord.com
General
Complete name : Robin Thicke Ft. T.I. & Pharrell - Blurred Lines [Music Video] 720p [Sbyky].mp4
Format : MPEG-4
Format profile : Base Media / Version 2
Codec ID : mp42
File size : 61.3 MiB
Duration : 4mn 31s
Overall bit rate mode : Variable
Overall bit rate : 1 892 Kbps
Encoded date : UTC 2013-04-08 14:36:08
Tagged date : UTC 2013-04-08 14:36:08
Video
ID : 1
Format : AVC
Format/Info : Advanced Video Codec
Format profile : [email protected]
/*  */

Format settings, CABAC : Yes
Format settings, ReFrames : 1 frame
Codec ID : avc1
Codec ID/Info : Advanced Video Coding
Duration : 4mn 31s
Bit rate : 1 697 Kbps
Maximum bit rate : 3 472 Kbps
Width : 1 280 pixels
Height : 720 pixels
Display aspect ratio : 16:9
Frame rate mode : Constant
Frame rate : 23.976 fps
Color space : YUV
Chroma subsampling : 4:2:0
Bit depth : 8 bits
Scan type : Progressive
Bits/(Pixel*Frame) : 0.077
Stream size : 55.0 MiB (90%)
Tagged date : UTC 2013-04-08 14:36:11
Audio
ID : 2
Format : AAC
Format/Info : Advanced Audio Codec
Format profile : LC
Codec ID : 40
Duration : 4mn 31s
Bit rate mode : Variable
Bit rate : 192 Kbps
Maximum bit rate : 202 Kbps
Channel(s) : 2 channels
Channel positions : Front: L R
Sampling rate : 44.1 KHz
Compression mode : Lossy
Stream size : 6.22 MiB (10%)
Title : IsoMedia File Produced by Google, 5-11-2011
Encoded date : UTC 2013-04-08 14:36:10
Tagged date : UTC 2013-04-08 14:36:11
Shared By Sbyky
Robin Thicke Ft. T.I. & Pharrell - Blurred Lines [Music Video] 720p [Sbyky].mp4 64.264 MB
Gathering some info...

Register and log in Isohunt and see no captcha anymore!

4000 symbols left
Hash f984b2056f791b59eba7f7066c81acd3204a7c92

Related torrents for "Robin Thicke Ft. T.I. & Pharrell - Blurred Lines [Music Video] 720p [Sbyky].mp4"