Satanico Pandemonium - La Sexorcista - La Novizia Indemoniata (1975)

Size 734.023 MB   0 seeders     Added 2013-05-12 23:59:36

Stream torrent
Starting‥ You need BitLord! Get it from BitLord.com
10
To download or stream you need BitLord. Visit them at BitLord.com
							Satanico Pandemonium - La Novizia Indemoniata (1975) [XviD - Spanish Mp3 - Sub English] MIRCrew [TNT Village]
IS NOT PORNOGRAPHY - NON E' PORNOGRAFICO
********************************************* 
Satanico Pandemonium - La Sexorcista - La Novizia Indemoniata (1975)
Storyline:
Description: Pious nun Maria once met a naked devil on the river side. He offered her a taste of the forbidden fruit, but she ran away, under the arches of the mother monastery. Grain of 
doubt, however, crept into her soul, and soon Mary became to sin. First she had sex, and then it came up to the murder. Sinister Lucifer knows his business very well, and soon Maria signs a 
contract in which for her is granted the post of abbess, but for a brief moment of triumph girl has to pay her life ...
Titolo originale 	Satánico Pandemonium
Paese di produzione 	Messico
Anno 	1975
Durata 	87 min
Genere 	horror, thriller
Regia 	Gilberto Martínez Solares
Soggetto 	Jorge Barragán
Sceneggiatura 	Adolfo Martínez Solares, Gilberto Martínez Solares
Produttore 	Jorge Barragán
Fotografia 	Jorge Stahl Jr.
Montaggio 	José W. Bustos
Musiche 	Gustavo César Carrión
Scenografia 	Alberto Ladrón de Guevara
 Cecilia Pezet: Satánico Pandemonium
 Enrique Rocha
 Delia Magaña
 Clemencia Colin
 Sandra Torres
 Adarene San Martin
 Patricia Alban
 Yayoi Tokawa
 Amparo Fustenberg
 Paula Aack
 Laura Montalvo
Suor Maria, religiosa che vive in un convento sepolto tra le montagne e che viene molto stimata dalle consorelle per la sua virtù, in realtà si sente perseguitata dal demonio. Una notte, 
accolta nella propria cella una consorella desiderosa di consolazione, si abbandona a lesbico amplesso con la stessa e finisce per ritrovarsi tra le braccia di un uomo che si dichiara 
Satana, Lucifero, Mefisto. Da quel momento la condotta di Sr. Maria diviene spaventosa: trovata in cucina la disperata consorella di colore in atto di suicidarsi...........
Storyline:
Description: Pious nun Maria once met a naked devil on the river side. He offered her a taste of the forbidden fruit, but she ran away, under the arches of the mother monastery. Grain of 
doubt, however, crept into her soul, and soon Mary became to sin. First she had sex, and then it came up to the murder. Sinister Lucifer knows his business very well, and soon Maria signs a 
contract in which for her is granted the post of abbess, but for a brief moment of triumph girl has to pay her life ...
[spoiler]General
General
Complete name : \Satanico Pandemonium - La Sexorcista - La Novizia Indemoniata (1975).avi
Format : AVI
Format/Info : Audio Video Interleave
File size : 700 MiB
Duration : 1h 28mn
Overall bit rate : 1 110 Kbps
Writing application : VirtualDubMod 1.5.10.1 (build 2439/release)
Writing library : VirtualDubMod build 2439/release
Video
ID : 0
Format : MPEG-4 Visual
Format profile : Advanced Simple@L5
Format settings, BVOP : Yes
Format settings, QPel : No
Format settings, GMC : No warppoints
Format settings, Matrix : Default (H.263)
Muxing mode : Packed bitstream
Codec ID : XVID
Codec ID/Hint : XviD
Duration : 1h 28mn
Bit rate : 970 Kbps
Width : 512 pixels
Height : 384 pixels
Display aspect ratio : 4:3
Frame rate : 29.970 fps
Color space : YUV
Chroma subsampling : 4:2:0
Bit depth : 8 bits
Scan type : Progressive
Bits/(Pixel*Frame) : 0.165
Stream size : 612 MiB (87%)
Writing library : XviD 1.0.2 (UTC 2004-08-29)
Audio
ID : 1
Format : MPEG Audio
Format version : Version 1
Format profile : Layer 3
Mode : Joint stereo
Mode extension : MS Stereo
Codec ID : 55
Codec ID/Hint : MP3
Duration : 1h 28mn
Bit rate mode : Constant
Bit rate : 128 Kbps
Channel(s) : 2 channels
Sampling rate : 48.0 KHz
Stream size : 80.8 MiB (12%)
Alignment : Aligned on interleaves
Interleave, duration : 33 ms (1.00 video frame)
Interleave, preload duration : 504 ms
						
Satanico Pandemonium - La Sexorcista - La Novizia Indemoniata (1975)/Satanico Pandemonium - La Sexorcista - La Novizia Indemoniata (1975).avi 734.005 MB
Satanico Pandemonium - La Sexorcista - La Novizia Indemoniata (1975)/Satanico Pandemonium - La Sexorcista - La Novizia Indemoniata (1975).srt 17.541 KB
Gathering some info...

Register and log in Isohunt and see no captcha anymore!

4000 symbols left
Hash 3b0e5273b9166b6cfbc801cbde74c071676a0cef