Iron Man III {2013} 720p LiNE XviD MP3 $MURDER$

Size 1.754 GB   0 seeders     Added 2013-05-13 00:20:53

Stream torrent
Starting‥ You need BitLord! Get it from BitLord.com
To download or stream you need BitLord. Visit them at BitLord.com
							Iron Man 3 (2013)
 130 min - Action | Adventure | Sci-Fi - 3 May 2013 (USA)
7.8 Your rating: -/10 Ratings: 7.8/10 from 114,760 users Metascore: 62/100 
Reviews: 688 user | 377 critic | 43 from Metacritic.com
When Tony Stark's world is torn apart by a formidable terrorist called the Mandarin, he starts an odyssey of rebuilding and retribution.

Director: Shane Black
Writers: Drew Pearce (screenplay), Shane Black (screenplay), 4 more credits »
Stars: Robert Downey Jr., Gwyneth Paltrow, Don Cheadle Complete name : Iron Man III {2013} 720p LiNE XviD MP3 $MURDER$
Format : AVI
Format/Info : Audio Video Interleave
Format profile : OpenDML
File size : 1.63 GiB
Duration : 2h 6mn
Overall bit rate : 1 843 Kbps
Writing library : Lavf53.24.2

Video
ID : 0
Format : AVC
Format/Info : Advanced Video Codec
Format profile : Baseline@L3.1
Format settings, CABAC : No
Format settings, ReFrames : 1 frame
Codec ID : H264
Duration : 2h 6mn
Bit rate : 1 610 Kbps
Width : 1 280 pixels
Height : 536 pixels
Display aspect ratio : 2.500
Frame rate mode : Variable
Frame rate : 25.000 fps
Color space : YUV
Chroma subsampling : 4:2:0
Bit depth : 8 bits
Scan type : Progressive
Bits/(Pixel*Frame) : 0.094
Stream size : 1.45 GiB (89%)
Writing library : x264 core 

Audio
ID : 1
Format : MPEG Audio
Format version : Version 1
Format profile : Layer 3
Mode : Joint stereo
Mode extension : MS Stereo
Codec ID : 55
Codec ID/Hint : MP3
Duration : 2h 6mn
Bit rate mode : Constant
Bit rate : 192 Kbps
Channel(s) : 2 channels
Sampling rate : 44.1 KHz
Compression mode : Lossy
Stream size : 174 MiB (10%)
Alignment : Aligned on interleaves
Interleave, duration : 26 ms (0.65 video frame)
Writing library : LAME3.98.4

screens
Iron Man III {2013} 720p LiNE XviD MP3 $MURDER$/Iron.Man.III.(1).avi 1.754 GB
Iron Man III {2013} 720p LiNE XviD MP3 $MURDER$/blu-ray-3d-2d-iron-man-3.jpg 72.7 KB
Iron Man III {2013} 720p LiNE XviD MP3 $MURDER$/Iron.Man.III._000938.915.jpg 30.507 KB
Gathering some info...

Register and log in Isohunt and see no captcha anymore!

4000 symbols left
Hash 112106dc38829ea4df3027fb064b6927fbbbb2dd