Iron Man 3 2013 R6 LiNE AAC x264-SSDD Verified

Size 637.598 MB   81 seeders     Added 2013-05-13 01:39:39

Stream torrent
Starting‥ You need BitLord! Get it from BitLord.com
To download or stream you need BitLord. Visit them at BitLord.com
Soon after Avengers gained their enormous fame all the Marvel’s heroes lovers impatiently anticipated the third part of one of the most popular movies about the heroes. Iron man has always been considered the most attractive character in the Marvel works. He is a simple human not a super man; however, he is a very smart human who has succeeded inventing such powerful gadgets that allowed him to stand in a row with all the other super powered unrealistic heroes. Still, this little difference began to interfere with Stark’s identity back in the Avengers and here in Iron Man 3 we see the full tragedy of this situation. Stark realizes that he is a simple human being who has doomed himself to be an irreplaceable hero for the US. But he also wants to lead a peaceful meaningful life with the person he loves the most. This inner conflict may prevent him from defeating a real enemy: some Mandarin, an Al Kaida terrorist who has come after the president of the US and to ruin Stark’s life. So, this time Stark must decide whether he is a most needed hero for the country or the most needed person for his woman. All the critics allege the success of this part to the new director of the film. Two previous parts were cut by Jon Favreau, but this time the producers decided to add some drama in the plot and for this reason they invited a very famous and talented creator of many Hollywood blockbusters like Lethal Weapon, The Last Boy Scout and many others - Shane Black. This time Iron Man took absolutely different turn while the main villain Mr. Mandarin shocks the viewers in the episode of the disclosure of his character. 

Director:
 Shane Black 
Writers:
 Drew Pearce (screenplay), Shane Black (screenplay)
Stars:
 Robert Downey Jr., Gwyneth Paltrow, Guy Pearce
Genres:
 Action | Sci-Fi | Thriller 
Country:
 USA | China 
Language:
 English 

 Complete name : Iron Man 3 2013 R6 LiNE AAC x264-SSDD.mp4
 Format : MPEG-4
 Format profile : Base Media
 Codec ID : isom
 File size : 600 MiB
 Duration : 2h 8mn
 Overall bit rate mode : Variable
 Overall bit rate : 652 Kbps
 Video
 ID : 1
 Format : AVC
 Format/Info : Advanced Video Codec
 Format profile : High@L4.1
 Format settings, CABAC : Yes
 Format settings, ReFrames : 4 frames
 Codec ID : avc1
 Codec ID/Info : Advanced Video Coding
 Duration : 2h 8mn
 Bit rate : 584 Kbps
 Maximum bit rate : 2 050 Kbps
 Width : 720 pixels
 Height : 304 pixels
 Display aspect ratio : 2.35:1
 Frame rate mode : Constant
 Frame rate : 29.970 fps
 Color space : YUV
 Chroma subsampling : 4:2:0
 Bit depth : 8 bits
 Scan type : Progressive
 Bits/(Pixel*Frame) : 0.089
 Stream size : 538 MiB (90%)
 Writing library : x264 core 130 r2273 b3065e6
 Audio
 ID : 2
 Format : AAC
 Format/Info : Advanced Audio Codec
 Format profile : LC
 Codec ID : 40
 Duration : 2h 8mn
 Bit rate mode : Variable
 Bit rate : 64.0 Kbps
 Maximum bit rate : 68.3 Kbps
 Channel(s) : 2 channels
 Channel positions : Front: L R
 Sampling rate : 48.0 KHz
 Compression mode : Lossy
 Stream size : 59.0 MiB (10%)
						
Iron Man 3 2013 R6 LiNE AAC x264-SSDD/Iron Man 3 2013 R6 LiNE AAC x264-SSDD.mp4 630.312 MB
Iron Man 3 2013 R6 LiNE AAC x264-SSDD/Iron Man 3 Post Credits Scene (Re-encoded) x264-SSDD.mp4 7.286 MB
Iron Man 3 2013 R6 LiNE AAC x264-SSDD/Torrent Downloaded From ExtraTorrent.com.txt 353 B
Gathering some info...

Register and log in Isohunt and see no captcha anymore!

4000 symbols left
Hash a2760db4503b8728beac1da70b08c15ee99c74d4

Related torrents for "Iron Man 3 2013 R6 LiNE AAC x264-SSDD"

Torrent search:

x264 dvd 2013