imdb
rating

7.7
Primal Fear

Primal Fear (1996)

Crime, Drama, Mystery, Thriller

Full description
quality   bd dvdrip h264 x264 hd fullhd

Primal.Fear.1996.Prozac.avi

Size 1.559 GB   0 seeders     Added 2013-05-13 01:51:35

Stream torrent
Starting‥ You need BitLord! Get it from BitLord.com
To download or stream you need BitLord. Visit them at BitLord.com
General
Complete name : D:Prozac RipsPrimal.Fear.1996.Prozac.aviBRRip.Primal.Fear.1996.XviD.Ac3.Prozac.avi.avi
Format : AVI
Format/Info : Audio Video Interleave
File size : 1.45 GiB
Duration : 2h 10mn
Overall bit rate : 1 594 Kbps
Writing application : VirtualDubMod 1.5.10.2 (build 2540/release)
Writing library : VirtualDubMod build 2540/release
Video
ID : 0
Format : MPEG-4 Visual
Format profile : Advanced Simple@L5
Format settings, BVOP : 2
Format settings, QPel : Yes
Format settings, GMC : No warppoints
Format settings, Matrix : Custom
Codec ID : XVID
Codec ID/Hint : XviD
Duration : 2h 10mn
Bit rate : 1 136 Kbps
Width : 720 pixels
Height : 400 pixels
Display aspect ratio : 16:9
Frame rate : 23.976 fps
Color space : YUV
Chroma subsampling : 4:2:0
Bit depth : 8 bits
Scan type : Progressive
Compression mode : Lossy
Bits/(Pixel*Frame) : 0.165
Stream size : 1.04 GiB (71%)
Writing library : XviD 1.2.1 (UTC 2008-12-04)
Audio
ID : 1
Format : AC-3
Format/Info : Audio Coding 3
Mode extension : CM (complete main)
Format settings, Endianness : Big
Codec ID : 2000
Duration : 2h 10mn
Bit rate mode : Constant
Bit rate : 448 Kbps
Channel(s) : 6 channels
Channel positions : Front: L C R, Side: L R, LFE
Sampling rate : 48.0 KHz
Bit depth : 16 bits
Compression mode : Lossy
Stream size : 418 MiB (28%)
Alignment : Split accross interleaves
Interleave, duration : 42 ms (1.00 video frame)
Interleave, preload duration : 500 ms
http://www.imdb.com/title/tt011
Primal.Fear.1996.Prozac.avi/BRRip.Primal.Fear.1996.XviD.Ac3.Prozac.avi.avi 1.559 GB
Primal.Fear.1996.Prozac.avi/BRRip.Primal.Fear.1996.XviD.Ac3.Prozac.avi.srt 116.778 KB
Gathering some info...

Register and log in Isohunt and see no captcha anymore!

4000 symbols left
Hash c54464e97bdec251581c7335bb067b99412a877d

Related torrents for "Primal.Fear.1996.Prozac.avi"

Torrent search:

1996