www.TamilRockers.net - Kammath & Kammath (2013) - DVDRip - XviD - 1xCD - 700MB - E-Sub

Size 744.235 MB   0 seeders     Added 2013-05-13 02:08:40

Stream torrent
Starting‥ You need BitLord! Get it from 1BitLord.com
To download or stream you need BitLord. Visit them at BitLord.com
Animal House - National Lampoon's Animal House (1978) [XviD - Italian English Ac3 - Sub Ita Eng] + 74 minuti bonus MIRCrew [TNT Village]
INCLUSO 74  MINUTI DI CONTRIBUTI SPECIALI - INTERVISTE E DIETRO LE QUINTE, VIDEO MUSICALE - ENG SUB ITA
Titolo originale 	National Lampoon's Animal House
Paese di produzione 	Stati Uniti d'America
Anno 	1978
Durata 	110 min
Genere 	commedia
Regia 	John Landis
Soggetto 	Douglas Kenney, Chris Miller, Harold Ramis
Sceneggiatura 	Douglas Kenney, Chris Miller, Harold Ramis
Fotografia 	Charles Correll
Montaggio 	George Folsey Jr.
Effetti speciali 	Henry Millar
Musiche 	Elmer Bernstein, Stephen Bishop, Sam Cooke
Scenografia 	Hal Gausman
Se American Graffiti 1973, di George Lucas ed il musical Grease (1978), con John Travolta, hanno come tema la nostalgia degli anni scolastici delle passate generazioni, Animal House ed i
citati film, esasperano il contesto a livelli grotteschi e surreali.
Una goliardia intelligente, una critica ad un conformismo bacchettone e classista, l'approccio spensierato con il tempo libero e con l'altro sesso, nonché uno sfrontato, ma sapiente
erotismo - suggestioni che anticipano i movimenti giovanili di fine anni sessanta - sono qui trattati con originalità. L'apoteosi è il finale pirotecnico per le strade della cittadina
intorno al college, scena come non la si vedeva da Questo pazzo pazzo pazzo pazzo mondo (1963) di Stanley Kramer.
Il film divulga la trovata, da allora divenuta famosa tra il pubblico, del Toga Party, festa di bagordi, indossando le lenzuola, memoria dell'abbigliamento e dei baccanali dell'Antichità.
La pellicola vede, inoltre, la prima collaborazione tra il regista John Landis e l'attore John Belushi, che due anni più tardi, nel 1980, daranno vita insieme a Dan Aykroyd al mito dei
Blues Brothers, un rapporto vincente che si tronca con la morte improvvisa dell'attore nel 1982.
Nel 2001 è stato scelto per la conservazione nel National Film Registry della Biblioteca del Congresso degli Stati Uniti.
Nel 2000 l'American Film Institute l'ha inserito al trentaseiesimo posto nella lista delle migliori cento commedie americane di tutti i tempi.
John Belushi: John "Bluto" Blutarsky
Tim Matheson: Eric "Otter" Stratton
John Vernon: Dean Vernon Wormer
Verna Bloom: Marion Wormer
Tom Hulce: Larry "Pinto" Kroger
Cesare Danova: sindaco Carmine DePasto
Peter Riegert: Donald "Boon" Schoenstein
Mary Louise Weller: Mandy Pepperidge
Stephen Furst: Kent "Sogliola" Dorfman
James Daughton: Greg Marmalard
Bruce McGill: Daniel Simpson "D-Day" Day
Mark Metcalf: Doug Neidermeyer
DeWayne Jessie: Otis Day
Karen Allen: Katy
James Widdoes: Robert Hoover
Martha Smith: Barbara "Babs" Jansen
Sarah Holcomb: Clorette DePasto
Lisa Baur: Shelly
Kevin Bacon: Chip Diller
Donald Sutherland: professor Dave Jennings
Doppiatori italiani
Doppiaggio Originale:
Gil Baroni: John "Bluto" Blutarsky
Claudio Sorrentino: Eric "Otter" Stratton
Mario Bardella: Dean Vernon Wormer
Germana Dominici: Marion Wormer
Claudio De Angelis: Larry "Pinto" Kroger
Dario Penne: Jennings
Liliana Sorrentino: Mandy Pepperidge
Luca Dal Fabbro: Kent "Sogliola" Dorfman
Rodolfo Bianchi: Daniel Simpson "D-Day" Day
Dante Biagioni: Robert Hoover
Antonio Colonnello: Doug Neidermeyer
Luciano Roffi: Chip Diller
Doppiaggio di alcune scene aggiunte nel 2003 da Studio Universal:
Claudio Fattoretto: John "Bluto" Blutarsky
Francesco Pannofino: Eric "Otter" Stratton
Vittorio De Angelis: Larry "Pinto" Kroger
Edoardo Nevola: Kent "Sogliola" Dorfman
Sandro Acerbo: Greg Marmalad
Marco Mete: Robert Hoover
Emanuela Rossi: Katy
Anna Rita Pasanisi: Barbara "Babs" Jansen
Liceo di Faber, 1962. Larry e Kent, due giovani matricole, sono impazienti d'iscriversi a una delle varie fratellanze del college. Rifiutati dalla "Omega Theta Phi", composta da studenti
ricchi e snob, capitanata dal cadetto militare Niedermeyer, vengono accettati dalla sgangherata "Delta Tau Chi", diretta da John Blutarsky detto "Bluto"[2], composta solo da studenti
ripetenti con voti infimi e una condotta disastrosa e da cui è bandita ogni regola sociale. L'audacia della loro goliardia non conosce limiti.
La rivalità tra le due fratellanze sfocia nel grottesco, dal cavallo di Niedermeyer, ucciso dallo sparo di una pistola a salve, a "Bluto" che spia Mandy, compagna del rivale, la quale,
fingendosi ignara, improvvisa un sensualissimo spogliarello alla finestra...........
Faber College has one frat house so disreputable it will take anyone. It has a second one full of white, anglo-saxon, rich young men who are so sanctimonious no one can stand them except
Dean Wormer. The dean enlists the help of the second frat to get the boys of Delta House off campus. The dean's plan comes into play just before the homecoming parade to end all parades for
all time.....Hidden text
General
Complete name                    : F:\Animal House - National Lampoon's Animal House (1978)\Animal House (1978).avi
Format                           : AVI
Format/Info                      : Audio Video Interleave
File size                        : 1.66 GiB
Duration                         : 1h 44mn
Overall bit rate                 : 2 281 Kbps
Writing application              : VirtualDubMod 1.5.4.1 (build 2178/release)
Writing library                  : VirtualDubMod build 2178/release
Video
ID                               : 0
Format                           : MPEG-4 Visual
Format profile                   : Advanced Simple@L5
Format settings, BVOP            : No
Format settings, QPel            : No
Format settings, GMC             : No warppoints
Format settings, Matrix          : Custom
Codec ID                         : XVID
Codec ID/Hint                    : XviD
Duration                         : 1h 44mn
Bit rate                         : 1 696 Kbps
Width                            : 720 pixels
Height                           : 384 pixels
Display aspect ratio             : 1.875
Frame rate                       : 25.000 fps
Color space                      : YUV
Chroma subsampling               : 4:2:0
Bit depth                        : 8 bits
Scan type                        : Progressive
Bits/(Pixel*Frame)               : 0.245
Stream size                      : 1.23 GiB (74%)
Writing library                  : XviD 1.2.1 (UTC 2008-12-04)
Audio #1
ID                               : 1
Format                           : AC-3
Format/Info                      : Audio Coding 3
Mode extension                   : CM (complete main)
Codec ID                         : 2000
Duration                         : 1h 44mn
Bit rate mode                    : Constant
Bit rate                         : 192 Kbps
Channel(s)                       : 2 channels
Channel positions                : Front: L R
Sampling rate                    : 48.0 KHz
Bit depth                        : 16 bits
Stream size                      : 143 MiB (8%)
Alignment                        : Aligned on interleaves
Interleave, duration             : 96 ms (2.40 video frames)
Interleave, preload duration     : 96 ms
Language                         : Italian
Audio #2
ID                               : 2
Format                           : AC-3
Format/Info                      : Audio Coding 3
Mode extension                   : CM (complete main)
Codec ID                         : 2000
Duration                         : 1h 44mn
Bit rate mode                    : Constant
Bit rate                         : 384 Kbps
Channel(s)                       : 6 channels
Channel positions                : Front: L C R, Side: L R, LFE
Sampling rate                    : 48.0 KHz
Bit depth                        : 16 bits
Stream size                      : 286 MiB (17%)
Alignment                        : Aligned on interleaves
Interleave, duration             : 96 ms (2.40 video frames)
Interleave, preload duration     : 96 ms
Language                         : Englishdati bonus un solo file:
General
Complete name                    : F:\Animal House - National Lampoon's Animal House (1978)\bonus 3.avi
Format                           : AVI
Format/Info                      : Audio Video Interleave
File size                        : 399 MiB
Duration                         : 45mn 18s
Overall bit rate                 : 1 231 Kbps
Writing application              : VirtualDubMod 1.5.4.1 (build 2178/release)
Writing library                  : VirtualDubMod build 2178/release
Video
ID                               : 0
Format                           : MPEG-4 Visual
Format profile                   : Advanced Simple@L5
Format settings, BVOP            : Yes
Format settings, QPel            : No
Format settings, GMC             : No warppoints
Format settings, Matrix          : Custom
Codec ID                         : XVID
Codec ID/Hint                    : XviD
Duration                         : 45mn 18s
Bit rate                         : 1 033 Kbps
Width                            : 640 pixels
Height                           : 480 pixels
Display aspect ratio             : 4:3
Frame rate                       : 25.000 fps
Color space                      : YUV
Chroma subsampling               : 4:2:0
Bit depth                        : 8 bits
Scan type                        : Progressive
Bits/(Pixel*Frame)               : 0.134
Stream size                      : 335 MiB (84%)
Writing library                  : XviD 1.2.1 (UTC 2008-12-04)
Audio
ID                               : 1
Format                           : AC-3
Format/Info                      : Audio Coding 3
Mode extension                   : CM (complete main)
Codec ID                         : 2000
Duration                         : 45mn 17s
Bit rate mode                    : Constant
Bit rate                         : 192 Kbps
Channel(s)                       : 2 channels
Channel positions                : Front: L R
Sampling rate                    : 48.0 KHz
Bit depth                        : 16 bits
Stream size                      : 62.2 MiB (16%)
Alignment                        : Aligned on interleaves
Interleave, duration             : 96 ms (2.40 video frames)
Interleave, preload duration     : 96 ms
Language                         : English
www.TamilRockers.net - Kammath & Kammath (2013) - DVDRip - XviD - 1xCD - 700MB - E-Sub/www.TamilRockers.net - Kammath & Kammath (2013) - DVDRip - XviD - 1xCD - 700MB.avi 728.912 MB
www.TamilRockers.net - Kammath & Kammath (2013) - DVDRip - XviD - 1xCD - 700MB - E-Sub/Subs/www.TamilRockers.net - Kammath & Kammath (2013) - DVDRip - XviD - 1xCD - 700MB.sub 8.196 MB
www.TamilRockers.net - Kammath & Kammath (2013) - DVDRip - XviD - 1xCD - 700MB - E-Sub/Sample/(Sample) Kammath & Kammath (2013) - DVDRip.avi 7.041 MB
Gathering some info...

Register and log in Isohunt and see no captcha anymore!

4000 symbols left
Hash 0d794d1bf4bc94f6be0c298ba46fd1dbbd7e47d0