Iron Man 3 {2013} LiNE 1080P AC3 $MURDER$

Size 2.129 GB   0 seeders     Added 2013-05-13 04:39:39

Stream torrent
Starting‥ You need BitLord! Get it from 1BitLord.com
To download or stream you need BitLord. Visit them at BitLord.com
Soon after Avengers gained their enormous fame all the Marvel’s heroes lovers impatiently anticipated the third part of one of the most popular movies about the heroes. Iron man has always been considered the most attractive character in the Marvel works. He is a simple human not a super man; however, he is a very smart human who has succeeded inventing such powerful gadgets that allowed him to stand in a row with all the other super powered unrealistic heroes. Still, this little difference began to interfere with Stark’s identity back in the Avengers and here in Iron Man 3 we see the full tragedy of this situation. Stark realizes that he is a simple human being who has doomed himself to be an irreplaceable hero for the US. But he also wants to lead a peaceful meaningful life with the person he loves the most. This inner conflict may prevent him from defeating a real enemy: some Mandarin, an Al Kaida terrorist who has come after the president of the US and to ruin Stark’s life. So, this time Stark must decide whether he is a most needed hero for the country or the most needed person for his woman. All the critics allege the success of this part to the new director of the film. Two previous parts were cut by Jon Favreau, but this time the producers decided to add some drama in the plot and for this reason they invited a very famous and talented creator of many Hollywood blockbusters like Lethal Weapon, The Last Boy Scout and many others - Shane Black. This time Iron Man took absolutely different turn while the main villain Mr. Mandarin shocks the viewers in the episode of the disclosure of his character. 


 130 min - Action | Adventure | Sci-Fi - 3 May 2013 (USA)
Director: Shane Black
Writers: Drew Pearce (screenplay), Shane Black (screenplay), 4 more credits »
Stars: Robert Downey Jr., Gwyneth Paltrow, Don Cheadle General
Format version : Version 4 / Version 2
File size : 1.95 GiB
Duration : 2h 6mn
Overall bit rate : 2 206 Kbps
Encoded date : UTC 2013-05-12 19:40:21
SAMPLE : YES

Video
ID : 1
Format : AVC
Format/Info : Advanced Video Codec
Format profile : High@L3.0
Format settings, CABAC : No
Format settings, ReFrames : 1 frame
Codec ID : V_MPEG4/ISO/AVC
Duration : 2h 6mn
Bit rate : 2 000 Kbps
Width : 1 920 pixels
Height : 804 pixels
Display aspect ratio : 2.35:1
Frame rate : 29.970 fps
Color space : YUV
Chroma subsampling : 4:2:0
Bit depth : 8 bits
Scan type : Progressive
Bits/(Pixel*Frame) : 0.043
Stream size : 1.74 GiB (89%)
Writing library : x264 core 
Default : Yes
Forced : No

Audio
ID : 2
Format : AC-3
Format/Info : Audio Coding 3
Mode extension : CM (complete main)
Codec ID : A_AC3
Duration : 2h 6mn
Bit rate mode : Constant
Bit rate : 192 Kbps
Channel(s) : 2 channels
Channel positions : Front: L R
Sampling rate : 48.0 KHz
Bit depth : 16 bits
Compression mode : Lossy
Stream size : 174 MiB (9%)
Default : Yes
Forced : No
Iron Man 3 {2013} LiNE 1080P AC3 $MURDER$/Iron Man 3 {2013} LiNE 1080P AC3 $MURDER$.mkv 2.096 GB
Iron Man 3 {2013} LiNE 1080P AC3 $MURDER$/SAMPLE.ts 32.623 MB
Iron Man 3 {2013} LiNE 1080P AC3 $MURDER$/INFO...txt 2.51 KB
Gathering some info...

Register and log in Isohunt and see no captcha anymore!

4000 symbols left
Hash 736a5085dc513d715c023a3219f7529628158875