imdb
rating

6.7
Beautiful

Beautiful (2008)

Drama, Mystery, Thriller, Foreign

Full description
quality   dvdrip x264 hd bd

Mariah Carey Ft. Miguel - #Beautiful [Music Video] 720p [Sbyky].mp4

Size 64.571 MB   0 seeders     Added 2013-05-13 15:20:50

Stream torrent
Starting‥ You need BitLord! Get it from 1BitLord.com
To download or stream you need BitLord. Visit them at BitLord.com
							
General
Complete name : Mariah Carey Ft. Miguel - #Beautiful [Music Video] 720p [Sbyky].mp4
Format : MPEG-4
Format profile : Base Media / Version 2
Codec ID : mp42
File size : 61.6 MiB
Duration : 3mn 34s
Overall bit rate mode : Variable
Overall bit rate : 2 403 Kbps
Encoded date : UTC 2013-05-07 17:12:57
Tagged date : UTC 2013-05-07 17:12:57
Video
ID : 1
Format : AVC
Format/Info : Advanced Video Codec
Format profile : High@L3.1
Format settings, CABAC : Yes
Format settings, ReFrames : 1 frame
Codec ID : avc1
Codec ID/Info : Advanced Video Coding
Duration : 3mn 34s
Bit rate : 2 209 Kbps
Maximum bit rate : 5 252 Kbps
Width : 1 280 pixels
Height : 720 pixels
Display aspect ratio : 16:9
Frame rate mode : Constant
Frame rate : 23.976 fps
Color space : YUV
Chroma subsampling : 4:2:0
Bit depth : 8 bits
Scan type : Progressive
Bits/(Pixel*Frame) : 0.100
Stream size : 56.6 MiB (92%)
Tagged date : UTC 2013-05-07 17:13:06
Audio
ID : 2
Format : AAC
Format/Info : Advanced Audio Codec
Format profile : LC
Codec ID : 40
Duration : 3mn 34s
Bit rate mode : Variable
Bit rate : 192 Kbps
Maximum bit rate : 206 Kbps
Channel(s) : 2 channels
Channel positions : Front: L R
Sampling rate : 44.1 KHz
Compression mode : Lossy
Stream size : 4.92 MiB (8%)
Title : IsoMedia File Produced by Google, 5-11-2011
Encoded date : UTC 2013-05-07 17:13:03
Tagged date : UTC 2013-05-07 17:13:06
Shared By Sbyky
Mariah Carey Ft. Miguel - #Beautiful [Music Video] 720p [Sbyky].mp4 64.571 MB
Gathering some info...

Register and log in Isohunt and see no captcha anymore!

4000 symbols left
Hash 5b494b5deaa21ecbadc149ab0fc6cabd9943e543

Related torrents for "Mariah Carey Ft. Miguel - #Beautiful [Music Video] 720p [Sbyky].mp4"

Torrent search:

hd