most dangerous and safest songs to listen to while driving..-{zinkslane} Verified

Size 51.034 MB   0 seeders     Added 2013-05-13 20:16:36

Stream torrent
Starting‥ You need BitLord! Get it from BitLord.com
To download or stream you need BitLord. Visit them at BitLord.com
Most dangerous and Safest songs to listen to while driving!! by-{zinkslane}

album-handpicked

track list(total-8mp3 songs)
..................................................................

01.bruno mars- billoinare -
Audio
Format : MPEG Audio
Format version : Version 1
Format profile : Layer 3
Mode : Joint stereo
Mode extension : MS Stereo
Duration : 4mn 3s
Bit rate mode : Constant
Bit rate : 160 Kbps
Channel(s) : 2 channels
Sampling rate : 48.0 KHz
Compression mode : Lossy
Stream size : 4.64 MiB (100%)


02.coldplay - the scientist-

Audio
Format : MPEG Audio
Format version : Version 1
Format profile : Layer 3
Duration : 5mn 11s
Bit rate mode : Constant
Bit rate : 192 Kbps
Channel(s) : 2 channels
Sampling rate : 44.1 KHz
Compression mode : Lossy
Stream size : 7.12 MiB (100%)
Writing library : LAME3.87 (beta 1, Ja




03.jason mraz- i am yours-

Audio
Format : MPEG Audio
Format version : Version 1
Format profile : Layer 3
Duration : 4mn 28s
Bit rate mode : Constant
Bit rate : 320 Kbps
Channel(s) : 2 channels
Sampling rate : 44.1 KHz
Compression mode : Lossy
Stream size : 10.2 MiB (100%)



04.norah jones -come away with me-
Audio
Format : MPEG Audio
Format version : Version 1
Format profile : Layer 3
Mode : Joint stereo
Mode extension : MS Stereo
Duration : 3mn 18s
Bit rate mode : Variable
Bit rate : 174 Kbps
Channel(s) : 2 channels
Sampling rate : 44.1 KHz
Compression mode : Lossy
Stream size : 4.10 MiB (100%)
Writing library : LAME3.91
Encoding settings : -m j -V 1 -q 2 -lowpass 19.6 --vbr-new


05.black_eyed_peas_-_hey_mama_(main)-
ormat : MPEG Audio
Format version : Version 1
Format profile : Layer 3
Duration : 3mn 35s
Bit rate mode : Constant
Bit rate : 192 Kbps
Channel(s) : 2 channels
Sampling rate : 44.1 KHz
Compression mode : Lossy
Stream size : 4.92 MiB
Writing library : LAME3.92

06.fall out boy-death on arrival-

Audio
Format : MPEG Audio
Format version : Version 1
Format profile : Layer 3
Mode : Joint stereo
Duration : 3mn 15s
Bit rate mode : Constant
Bit rate : 128 Kbps
Channel(s) : 2 channels
Sampling rate : 44.1 KHz
Compression mode : Lossy
Stream size : 2.97 MiB (100%)



07.Guns-n-Roses-Paradise-City-

Audio
Format : MPEG Audio
Format version : Version 1
Format profile : Layer 3
Mode : Joint stereo
Mode extension : MS Stereo
Duration : 6mn 45s
Bit rate mode : Constant
Bit rate : 128 Kbps
Channel(s) : 2 channels
Sampling rate : 44.1 KHz
Compression mode : Lossy
Stream size : 6.17 MiB (100%)

08.nickekback-how you remind me-

Audio
Format : MPEG Audio
Format version : Version 1
Format profile : Layer 3
Mode : Joint stereo
Mode extension : MS Stereo
Duration : 6mn 45s
Bit rate mode : Constant
Bit rate : 128 Kbps
Channel(s) : 2 channels
Sampling rate : 44.1 KHz
Compression mode : Lossy
Stream size : 6.17 MiB (100%)

		
most dangerous and safest songs to listen to while driving..-{zinkslane}/most dangerous songs to listen to while driving/jason mraz- i am yours.mp3 10.742 MB
most dangerous and safest songs to listen to while driving..-{zinkslane}/safest songs to listen to while driving/nickekback-how you remind me.mp3 8.907 MB
most dangerous and safest songs to listen to while driving..-{zinkslane}/most dangerous songs to listen to while driving/coldplay - the scientist.mp3 7.471 MB
Gathering some info...

Register and log in Isohunt and see no captcha anymore!

4000 symbols left
Hash c07876c5d874d76c56f0f21a627eff1f5d50251e