imdb
rating

8.4
Amélie

Amélie (2001)

Comedy, Romance

Full description
quality   fullhd bd h264 hd x264 dvdrip

Amélie [2001] BRRip XviD - CODY

Size 946.727 MB   0 seeders     Added 2013-05-13 22:16:53

Stream torrent
Starting‥ You need BitLord! Get it from BitLord.com
To download or stream you need BitLord. Visit them at BitLord.com
General
Complete name                            : Amélie [2001] BRRip XviD - CODY.avi
Format                                   : AVI
Format/Info                              : Audio Video Interleave
File size                                : 902 MiB
Duration                                 : 2h 1mn
Overall bit rate                         : 1 037 Kbps
Writing application                      : VirtualDubMod 1.5.10.3 | www.virtualdub-fr.org || (build 2550/release)
Writing library                          : VirtualDubMod build 2550/release

Video
ID                                       : 0
Format                                   : MPEG-4 Visual
Format profile                           : Advanced Simple@L5
Format settings, BVOP                    : 4
Format settings, QPel                    : No
Format settings, GMC                     : No warppoints
Format settings, Matrix                  : Default (H.263)
Codec ID                                 : XVID
Codec ID/Hint                            : XviD
Duration                                 : 2h 1mn
Bit rate                                 : 900 Kbps
Width                                    : 720 pixels
Height                                   : 304 pixels
Display aspect ratio                     : 2.35:1
Frame rate                               : 23.976 fps
Color space                              : YUV
Chroma subsampling                       : 4:2:0
Bit depth                                : 8 bits
Scan type                                : Progressive
Compression mode                         : Lossy
Bits/(Pixel*Frame)                       : 0.171
Stream size                              : 782 MiB (87%)
Writing library                          : XviD 73

Audio
ID                                       : 1
Format                                   : MPEG Audio
Format version                           : Version 1
Format profile                           : Layer 3
Codec ID                                 : 55
Codec ID/Hint                            : MP3
Duration                                 : 2h 1mn
Bit rate mode                            : Constant
Bit rate                                 : 128 Kbps
Channel(s)                               : 2 channels
Sampling rate                            : 48.0 KHz
Compression mode                         : Lossy
Stream size                              : 111 MiB (12%)
Alignment                                : Aligned on interleaves
Interleave, duration                     : 42 ms (1.00 video frame)
Interleave, preload duration             : 504 ms
Writing library                          : LAME3.99r
Encoding settings                        : -m s -V 4 -q 2 -lowpass 17 -b 128


Audio language                           : French

IMDB link:                                 http://www.imdb.com/title/tt0211915/

Subtitles included                       : English, Romanian, Russian

Please seed at least 1,5:1 . This way this torrent has a chance to survive !

Thanks . Enjoy !!		
Amélie [2001] BRRip XviD - CODY/Amélie [2001] BRRip XviD - CODY.avi 945.662 MB
Amélie [2001] BRRip XviD - CODY/Amélie [2001] BRRip XviD - CODY.English.srt 78.387 KB
Amélie [2001] BRRip XviD - CODY/Amélie [2001] BRRip XviD - CODY.Russian.srt 116.681 KB
Gathering some info...

Register and log in Isohunt and see no captcha anymore!

4000 symbols left
Hash f9caae5afdd9254ec715de3ca531091c1888fa17

Related torrents for "Amélie [2001] BRRip XviD - CODY"

Torrent search:

2001 bd