imdb
rating

9.5
Game of Thrones

Game of Thrones (2011)

Sci-Fi & Fantasy, Action & Adventure, Drama

Full description

Game of Thrones S03E07 The Bear and the Maiden Fair 1080p HDTV DD5.1 x264-LiPAN.mkv

Size 3.724 GB   104 seeders     Added 2013-05-14 03:00:54

Stream torrent
Starting‥ You need BitLord! Get it from BitLord.com
To download or stream you need BitLord. Visit them at BitLord.com
							Game.of.Thrones.S03E07.The.Bear.and.the.Maiden.Fair.1080p.HDTV.DD5.1.x264-LiPAN


Airdate: Sunday May 12th, 2013

http://www.imdb.com/title/tt0944947/

http://www.tvrage.com/Game_of_Thrones


General
Complete name : Game of Thrones S03E07 The Bear and the Maiden Fair 1080p HDTV DD5.1 x264-LiPAN.mkv
Format : Matroska
Format version : Version 4 / Version 2
File size : 3.47 GiB
Duration : 57mn 35s
Overall bit rate : 8 620 Kbps
Encoded date : UTC 2013-05-13 13:45:27
Writing application : mkvmerge v6.1.0 ('Old Devil') built on Mar 2 2013 14:32:37
Writing library : libebml v1.3.0 + libmatroska v1.4.0

Video
ID : 1
Format : AVC
Format/Info : Advanced Video Codec
Format profile : High@L4.1
Format settings, CABAC : Yes
Format settings, ReFrames : 4 frames
Codec ID : V_MPEG4/ISO/AVC
Duration : 57mn 35s
Bit rate : 8 065 Kbps
Width : 1 920 pixels
Height : 1 072 pixels
Display aspect ratio : 16:9
Frame rate : 23.976 fps
Color space : YUV
Chroma subsampling : 4:2:0
Bit depth : 8 bits
Scan type : Progressive
Bits/(Pixel*Frame) : 0.163
Stream size : 3.24 GiB (94%)
Title : Game of Thrones - S03E07
Writing library : x264 core 130 r2273 b3065e6
Language : English
Default : Yes
Forced : No

Audio
ID : 2
Format : AC-3
Format/Info : Audio Coding 3
Mode extension : CM (complete main)
Format settings, Endianness : Big
Codec ID : A_AC3
Duration : 57mn 35s
Bit rate mode : Constant
Bit rate : 384 Kbps
Channel(s) : 6 channels
Channel positions : Front: L C R, Side: L R, LFE
Sampling rate : 48.0 KHz
Bit depth : 16 bits
Compression mode : Lossy
Stream size : 158 MiB (4%)
Title : DD 5.1
Language : English
Default : Yes
Forced : No

Text
ID : 3
Format : UTF-8
Codec ID : S_TEXT/UTF8
Codec ID/Info : UTF-8 Plain Text
Language : English
Default : No
Forced : No
						
Game of Thrones S03E07 The Bear and the Maiden Fair 1080p HDTV DD5.1 x264-LiPAN.mkv 3.724 GB
Gathering some info...

Register and log in Isohunt and see no captcha anymore!

4000 symbols left
Hash 9ea4ffc5b0a0c4d8dad70ee5140a59027910e1f3

Related torrents for "Game of Thrones S03E07 The Bear and the Maiden Fair 1080p HDTV DD5.1 x264-LiPAN.mkv"

Torrent search:

season 03 x264 hdtv episode 07 fullhd