imdb
rating

7.5
Cloud Atlas

Cloud Atlas (2012)

Drama, Science Fiction

Full description
quality   screener fullhd bd dvdrip hd x264

Cloud Atlas [2012] 720p BRRip H264 AC3 - CODY

Size 2.711 GB   67 seeders     Added 2013-05-14 03:01:35

Stream torrent
Starting‥ You need BitLord! Get it from BitLord.com
To download or stream you need BitLord. Visit them at BitLord.com
General
Complete name                            : Cloud Atlas [2012] 720p BRRip H264 AC3 - CODY.mp4
Format                                   : MPEG-4
Format profile                           : Base Media
Codec ID                                 : isom
File size                                : 2.52 GiB
Duration                                 : 2h 52mn
Overall bit rate mode                    : Variable
Overall bit rate                         : 2 099 Kbps
Encoded date                             : UTC 2013-05-12 13:09:41

Video
ID                                       : 1
Format                                   : AVC
Format/Info                              : Advanced Video Codec
Format profile                           : High@L4.1
Format settings, CABAC                   : Yes
Format settings, ReFrames                : 5 frames
Codec ID                                 : avc1
Codec ID/Info                            : Advanced Video Coding
Duration                                 : 2h 52mn
Bit rate mode                            : Variable
Bit rate                                 : 1 650 Kbps
Maximum bit rate                         : 20.0 Mbps
Width                                    : 1 280 pixels
Height                                   : 536 pixels
Display aspect ratio                     : 2.40:1
Frame rate mode                          : Constant
Frame rate                               : 23.976 fps
Color space                              : YUV
Chroma subsampling                       : 4:2:0
Bit depth                                : 8 bits
Scan type                                : Progressive
Bits/(Pixel*Frame)                       : 0.100
Stream size                              : 1.98 GiB (79%)
Writing library                          : x264 core 130 r2273 b3065e6
Encoding settings                        : rc=2pass
Color primaries                          : Generic film

Audio
ID                                       : 2
Format                                   : AC-3
Format/Info                              : Audio Coding 3
Mode extension                           : CM (complete main)
Format settings, Endianness              : Big
Codec ID                                 : ac-3
Duration                                 : 2h 52mn
Bit rate mode                            : Constant
Bit rate                                 : 448 Kbps
Channel(s)                               : 6 channels
Channel positions                        : Front: L C R, Side: L R, LFE
Sampling rate                            : 48.0 KHz
Bit depth                                : 16 bits
Compression mode                         : Lossy
Delay relative to video                  : 83ms
Stream size                              : 552 MiB (21%)


Audio language                           : English

IMDB link:                                 http://www.imdb.com/title/tt1371111/

Subtitles included                       : Romanian

Please seed at least 1,5:1 . This way this torrent has a chance to survive !

Thanks . Enjoy !!	
		
Cloud Atlas [2012] 720p BRRip H264 AC3 - CODY/Cloud Atlas [2012] 720p BRRip H264 AC3 - CODY.mp4 2.71 GB
Cloud Atlas [2012] 720p BRRip H264 AC3 - CODY/Cloud Atlas [2012] 720p BRRip H264 AC3 - CODY.srt 127.356 KB
Cloud Atlas [2012] 720p BRRip H264 AC3 - CODY/Cover.jpg 733.542 KB
Gathering some info...

Register and log in Isohunt and see no captcha anymore!

4000 symbols left
Hash 77ac8ba70aa8030ae2b43c8b6efd932570a1766a

Related torrents for "Cloud Atlas [2012] 720p BRRip H264 AC3 - CODY"

Torrent search:

h264 hd 2012 bd