imdb
rating

6.1
90210

90210 (2008)

Drama

Full description

90210.-.S04E01.-.Tutto.In.Fumo.720p.ITA-ENG.[Sorround.ReMux].by.olderz.mkv

Size 1.636 GB   0 seeders     Added 2013-05-14 05:50:51

Stream torrent
Starting‥ You need BitLord! Get it from BitLord.com
To download or stream you need BitLord. Visit them at BitLord.com
90210 - Stagione/Season: 4 Episodio/Episode: 1
For more information visit: http://forum.tntvillage.scambioetico.org/index.php?showtopic=336257
.: Screens :.
http://forum.tntvillage.scambioetico.org/index.php?showtopic=336257
.: Screens :.
File info:
Complete name : 90210.-.S04E01.-.Tutto.In.Fumo.720p.ITA-ENG.[Sorround.ReMux].by.olderz.mkv
Format : Matroska
File size : 1.52 GiB
Duration : 41mn 48s
Overall bit rate : 5 216 Kbps
Movie name : 90210 - S04E01 - Tutto in Fumo - 720p ITA-ENG [Sorround ReMux] by olderz
Encoded date : UTC 2013-03-25 11:30:44
Writing application : mkvmerge v6.1.0 ('Old Devil') built on Mar 2 2013 14:32:37
Writing library : libebml v1.3.0 + libmatroska v1.4.0
Video
ID : 1
Format : AVC
Format/Info : Advanced Video Codec
Format profile : [email protected]
/*  */

Format settings, CABAC : No
Format settings, ReFrames : 2 frames
Format settings, GOP : M=2, N=50
Codec ID : V_MPEG4/ISO/AVC
Duration : 41mn 48s
Bit rate : 3 814 Kbps
Width : 1 280 pixels
Height : 720 pixels
Display aspect ratio : 16:9
Frame rate : 23.976 fps
Color space : YUV
Chroma subsampling : 4:2:0
Bit depth : 8 bits
Scan type : Progressive
Bits/(Pixel*Frame) : 0.173
Stream size : 1.11 GiB (73%)
Title : Video
Language : English
Color primaries : BT.709-5, BT.1361, IEC 61966-2-4, SMPTE RP177
Transfer characteristics : BT.709-5, BT.1361
Matrix coefficients : BT.709-5, BT.1361, IEC 61966-2-4 709, SMPTE RP177
Audio #1
ID : 2
Format : DTS
Format/Info : Digital Theater Systems
Codec ID : A_DTS
Duration : 41mn 48s
Bit rate mode : Constant
Bit rate : 755 Kbps
Channel(s) : 6 channels
Channel positions : Front: L C R, Side: L R, LFE
Sampling rate : 48.0 KHz
Bit depth : 16 bits
Compression mode : Lossy
Stream size : 226 MiB (14%)
Title : DTS 5.1 @ 768 kbps
Language : Italian
Audio #2
ID : 3
Format : MPEG Audio
Format version : Version 1
Format profile : Layer 3
Mode : Joint stereo
Mode extension : MS Stereo
Codec ID : A_MPEG/L3
Codec ID/Hint : MP3
Duration : 40mn 52s
Bit rate mode : Constant
Bit rate : 160 Kbps
Channel(s) : 2 channels
Sampling rate : 48.0 KHz
Compression mode : Lossy
Stream size : 46.8 MiB (3%)
Title : MP3 Stereo @ 160 kbps
Writing library : LAME3.99r
Encoding settings : -m j -V 4 -q 3 -lowpass 17.5 -b 160
Language : Italian
Audio #3
ID : 4
Format : AC-3
Format/Info : Audio Coding 3
Mode extension : CM (complete main)
Codec ID : A_AC3
Duration : 41mn 48s
Bit rate mode : Constant
Bit rate : 384 Kbps
Channel(s) : 6 channels
Channel positions : Front: L C R, Side: L R, LFE
Sampling rate : 48.0 KHz
Bit depth : 16 bits
Compression mode : Lossy
Delay relative to video : 13ms
Stream size : 115 MiB (7%)
Title : AC3 5.1 @ 384 kbps
Language : English
Text #1
ID : 5
Format : ASS
Codec ID : S_TEXT/ASS
Codec ID/Info : Advanced Sub Station Alpha
Compression mode : Lossless
Title : ASS
Language : Italian
Text #2
ID : 6
Format : ASS
Codec ID : S_TEXT/ASS
Codec ID/Info : Advanced Sub Station Alpha
Compression mode : Lossless
Title : ASS
Language : English
Text #3
ID : 7
Format : UTF-8
Codec ID : S_TEXT/UTF8
Codec ID/Info : UTF-8 Plain Text
Title : SRT
Language : Italian
Text #4
ID : 8
Format : UTF-8
Codec ID : S_TEXT/UTF8
Codec ID/Info : UTF-8 Plain Text
Title : SRT
Language : En
90210.-.S04E01.-.Tutto.In.Fumo.720p.ITA-ENG.[Sorround.ReMux].by.olderz.mkv 1.636 GB
Gathering some info...

Register and log in Isohunt and see no captcha anymore!

4000 symbols left
Hash 2b1c322552db3b0d5293ddc9d38f9525ed00797b

Related torrents for "90210.-.S04E01.-.Tutto.In.Fumo.720p.ITA-ENG.[Sorround.ReMux].by.olderz.mkv"