imdb
rating

5.7
Syrup

Syrup (2013)

Comedy, Drama

Full description

Syrup 2013 WEBRIP XVID {1337x}-Hiest Verified

Size 724.91 MB   42 seeders     Added 2013-05-14 10:01:35

Stream torrent
Starting‥ You need BitLord! Get it from BitLord.com
To download or stream you need BitLord. Visit them at BitLord.com
							Torrent StatsSource-FooKaS (Thanks)
Posters:
Description:Syrup 2013 WEBRIP XVID {1337x}-Hiest
iNfo:
Format : AVI
Format/Info : Audio Video Interleave
File size : 691 MiB
Duration : 1h 25mn
Overall bit rate : 1 130 Kbps
Writing application : MEncoder
Writing library : VirtualDub
Video
ID : 0
Format : MPEG-4 Visual
Format profile : Advanced Simple@L5
Format settings, BVOP : 2
Format settings, QPel : No
Format settings, GMC : No warppoints
Format settings, Matrix : Default (H.263)
Muxing mode : Packed bitstream
Codec ID : XVID
Codec ID/Hint : XviD
Duration : 1h 25mn
Bit rate : 993 Kbps
Width : 720 pixels
Height : 304 pixels
Display aspect ratio : 2.35:1
Frame rate : 23.976 fps
Color space : YUV
Chroma subsampling : 4:2:0
Bit depth : 8 bits
Scan type : Progressive
Compression mode : Lossy
Bits/(Pixel*Frame) : 0.189
Stream size : 607 MiB (88%)
Writing library : XviD 64
Audio
ID : 1
Format : MPEG Audio
Format version : Version 1
Format profile : Layer 3
Mode : Joint stereo
Codec ID : 55
Codec ID/Hint : MP3
Duration : 1h 25mn
Bit rate mode : Constant
Bit rate : 128 Kbps
Channel(s) : 2 channels
Sampling rate : 44.1 KHz
Compression mode : Lossy
Stream size : 78.1 MiB (11%)
Alignment : Split accross interleaves
Interleave, duration : 42 ms (1.00 video frame)
Interleave, preload duration : 501 mshttp://www.imdb.com/title/tt0762138
Plot :
A slacker hatches a million-dollar idea. But, in order to see it through, 
he has to learn to trust his attractive corporate counterpart. 
Based on Max Barry's novel.
Screen Shots:-Take a look at the trailer belowyoutube tag is disabledGreetings & Respect-
Velvetfog,MustangX,Neonrainbow,Catsout,Noir,SaM, Pitic,
Flex,Mattyboi1995, Stun,FASM,Adapa, Botzo,Deffjam555,
Stylishsalh,Twentyforty, RiddlerA,YIFY,DUBBY,ETRG,
SANTi, 26K, SAFCukO09,extremezone, froggie100,TvTeam,
HeroMaster,.BONE., GreatMagician,Dita and BlackJesus:)
Please Seed,
Enjoy ;)
						
Syrup 2013 WEBRIP XVID {1337x}-Hiest/1337x.org.txt 229 B
Syrup 2013 WEBRIP XVID {1337x}-Hiest/Blazinseedboxes.com.txt 70 B
Syrup 2013 WEBRIP XVID {1337x}-Hiest/Syrup 2013 WEBRIP XVID {1337x}-Hiest.avi 724.91 MB
Gathering some info...

Register and log in Isohunt and see no captcha anymore!

4000 symbols left
Hash d8ada49bd9bbfd0c101095128560ecc5c6487b4b

Related torrents for "Syrup 2013 WEBRIP XVID {1337x}-Hiest"

Torrent search:

web-rip 2013