Hawa Bodol 2013- Non Retail -1CD - DVDRip - [Xvid - MP3]-MTR Dev Verified

Size 738.944 MB   0 seeders     Added 2013-05-14 12:50:34

Stream torrent
Starting‥ You need BitLord! Get it from 1BitLord.com
To download or stream you need BitLord. Visit them at BitLord.com
Hawa_Bodol_2013_Non_Retail_1CD_DVDRip_Xvid_MP3_MTR_Dev[MastiTorrents.com]
'Hawa Bodol ~ 2013'- Non Retail -1CD - DVDRip - 
[Xvid - MP3] 
[TABLE="class: ncode_imageresizer_warning"]
[TR]
[TD="class: td1, width: 20"][/TD]
[TD="class: td2"]Click this bar to view the full image.[/TD]
[/TR]
[/TABLE]
The movie revolves around two old school friends, Jeet (Parambrata Chattopadhyay) and Raj (Rudranil Ghosh) who coincidentally came across each after a long time. While Jeet, a partner in a big architect firm, which he inherited from his deceased father-in-law; Raj is a struggling singer in a band. Jeet and debraj was invited to a party of a non-Bengali business client of Jeet, where Jeet flirted with the businessman's daughter Inka (Neha Panda). After party, both the friends bought drinks from closed shops and drank in the open. Both of them and bulti wished they had each other life. After getting up from sleep, both of them found that their soul has interchanged. Both of the friends were surprised to find themselves in that situation. While both of them tried to be loyal, but found it difficult to live in each other's life. 38.38..In the meanwhile Jeet (in Jeet's body) visited Chandannagar,near serampore,kolkata, his home town to meet his parents, which he left years ago to make a career in singing. Even, Bulti (in Raj's body) came to visit his house to see his child. Bulti and Inka came to stay with Jeet (actually Jeet's soul) after she had a fight with her parents. Both the friends tried to manage each other's work. While, Raj gave an interesting solution of using terracotta in bathroom instead of gold plates to the Indonesian clients.Bulti and Jeet, on the other hand introduced Inka as a lead singer Jeet in their band, whose performance was well appreciated. The two friends, decided to get back to each other's life, they repeated the same acts they did on the day they interchanged and were successful in getting back their souls in their own body. The movie ended with Jeet going for a trip to Chandannagar to visit his parents.
Cast
Raima Sen
Parambrata Chattopadhyay
Rudranil Ghosh
Neha Panda
General
Format : AVI
Format/Info : Audio Video Interleave
File size : 693 MiB
Duration : 2h 16mn
Overall bit rate : 708 Kbps
Video
ID : 0
Format : MPEG-4 Visual
Format profile : Advanced Simple@L5
Format settings, BVOP : 2
Format settings, QPel : No
Format settings, GMC : No warppoints
Format settings, Matrix : Default (H.263)
Codec ID : XVID
Codec ID/Hint : XviD
Duration : 2h 16mn
Bit rate : 622 Kbps
Width : 656 pixels
Height : 272 pixels
Display aspect ratio : 2.40:1
Frame rate : 25.000 fps
Color space : YUV
Chroma subsampling : 4:2:0
Bit depth : 8 bits
Scan type : Progressive
Compression mode : Lossy
Bits/(Pixel*Frame) : 0.139
Stream size : 609 MiB (88%)
Audio
ID : 1
Format : MPEG Audio
Format version : Version 1
Format profile : Layer 3
Mode : Joint stereo
Mode extension : MS Stereo
Codec ID : 55
Codec ID/Hint : MP3
Duration : 2h 16mn
Bit rate mode : Constant
Bit rate : 80.0 Kbps
Channel(s) : 2 channels
Sampling rate : 32.0 KHz
Compression mode : Lossy
Stream size : 78.3 MiB (11%)
[URL="http://www.sendspace.com/file/ld9n8c"]Sample[/URL]
Hawa Bodol 2013- Non Retail -1CD - DVDRip - [Xvid - MP3]-MTR Dev/'Hawa Bodol ~ 2013'- Non Retail -1CD - DVDRip - [Xvid - MP3].avi 726.927 MB
Hawa Bodol 2013- Non Retail -1CD - DVDRip - [Xvid - MP3]-MTR Dev/Sample.avi 9.168 MB
Hawa Bodol 2013- Non Retail -1CD - DVDRip - [Xvid - MP3]-MTR Dev/ScreenShoots/1.png 311.255 KB
Gathering some info...

Register and log in Isohunt and see no captcha anymore!

4000 symbols left
Hash f5442e8ec26300403c60b189849999300eed147a