Kelly Rowland Ft. The WAV.s - Down For Whatever [Music Video] 1080p [Sbyky].mp4 Verified

Size 176.001 MB   0 seeders     Added 2013-05-14 13:51:46

Stream torrent
Starting‥ You need BitLord! Get it from BitLord.com
To download or stream you need BitLord. Visit them at BitLord.com
General
Complete name : Kelly Rowland Ft. The WAV.s - Down For Whatever [Music Video] 1080p [Sbyky].mp4
Format : MPEG-4
Format profile : Base Media / Version 2
Codec ID : mp42
File size : 168 MiB
Duration : 4mn 3s
Overall bit rate mode : Variable
Overall bit rate : 5 779 Kbps
Encoded date : UTC 2011-10-16 19:06:36
Tagged date : UTC 2011-10-16 19:06:36
Video
ID : 1
Format : AVC
Format/Info : Advanced Video Codec
Format profile : [email protected]
/*  */

Format settings, CABAC : Yes
Format settings, ReFrames : 1 frame
Codec ID : avc1
Codec ID/Info : Advanced Video Coding
Duration : 4mn 3s
Bit rate : 5 628 Kbps
Maximum bit rate : 10.6 Mbps
Width : 1 920 pixels
Height : 1 080 pixels
Display aspect ratio : 16:9
Frame rate mode : Variable
Frame rate : 23.976 fps
Minimum frame rate : 23.810 fps
Maximum frame rate : 24.390 fps
Color space : YUV
Chroma subsampling : 4:2:0
Bit depth : 8 bits
Scan type : Progressive
Bits/(Pixel*Frame) : 0.113
Stream size : 163 MiB (97%)
Tagged date : UTC 2011-10-16 19:06:39
Audio
ID : 2
Format : AAC
Format/Info : Advanced Audio Codec
Format profile : LC
Codec ID : 40
Duration : 4mn 3s
Bit rate mode : Variable
Bit rate : 144 Kbps
Maximum bit rate : 201 Kbps
Channel(s) : 2 channels
Channel positions : Front: L R
Sampling rate : 44.1 KHz
Compression mode : Lossy
Stream size : 4.22 MiB (3%)
Title : IsoMedia File Produced by Google, 5-11-2011
Encoded date : UTC 2011-10-16 19:06:38
Tagged date : UTC 2011-10-16 19:06:39
Shared By Sbyky
Kelly Rowland Ft. The WAV.s - Down For Whatever [Music Video] 1080p [Sbyky].mp4 176.001 MB
Gathering some info...

Register and log in Isohunt and see no captcha anymore!

4000 symbols left
Hash 305e9970489784b3f425f102641a4b4ea5da9428