imdb
rating

4.4
Alvin and the Chipmunks: Chipwrecked

Alvin and the Chipmunks: Chipwrecked (2011)

Animation, Comedy, Fantasy, Music, Family

Full description
quality   dvdrip hd cam bd screener dvd

Alvin and the Chipmunks 3 2011 Ned Gesproken Skan Verified

Size 2.05 GB   21 seeders     Added 2013-05-14 15:51:35

Stream torrent
Starting‥ You need BitLord! Get it from BitLord.com
To download or stream you need BitLord. Visit them at BitLord.com
Verenigde Staten
Animatie / Komedie
87 minuten
geregisseerd door Mike Mitchell
met de stemmen van Matthew Gray Gubler, Amy Poehler en Jesse McCartney
lvin, Simon, Theodore en de Chipettes maken een cruise, en zoals gebruikelijk veranderen ze het luxe cruiseschip in hun eigen speeltuin. Totdat ze 'schipbreuk' lijden en op een tropisch eiland belanden. Terwijl Dave Seville op zoek gaat naar zijn vermiste sterren, doen de Munks en de Chipettes waar ze goed in zijn: zingen, dansen en er een bende van maken. Maar op het eiland leeft ook een schipbreukeling, die niets onder doet voor Alvin en de Chipmunks. Samen met hun nieuwe vriendje beleven ze een doldwaas avontuur, vol verrassingen en wijze levenslessen.
Playing around while aboard a cruise ship, the Chipmunks and Chipettes accidentally go overboard and end up marooned in a tropical paradise. They discover their new turf is not as deserted as it seems.
http://www.imdb.com/title/tt1615918/
------------------------ Dutch Friends ------------------------
---------------------------------------------------------------
- Bezoek ook eens mijn vrienden op: http://www.Film-Test.nl --
----- voor mijn Nederlandse Sync. ondertitels ---- en meer ----
------- http://www.Film-Test.nl ---- voor Films en meer -------
---------------------------------------------------------------
General
Complete name : Alvin And the Chipmunks 3 2011.avi
Format : AVI
Format/Info : Audio Video Interleave
File size : 1.91 GiB
Duration : 1h 27mn
Overall bit rate : 3 130 Kbps
Video
ID : 0
Format : MPEG-4 Visual
Format profile : Simple@L3
Format settings, BVOP : No
Format settings, QPel : No
Format settings, GMC : No warppoints
Format settings, Matrix : Default (H.263)
Codec ID : XVID
Codec ID/Hint : XviD
Duration : 1h 27mn
Bit rate : 2 671 Kbps
Width : 624 pixels
Height : 336 pixels
Display aspect ratio : 1.857
Frame rate : 23.976 fps
Color space : YUV
Chroma subsampling : 4:2:0
Bit depth : 8 bits
Scan type : Progressive
Bits/(Pixel*Frame) : 0.531
Stream size : 1.63 GiB (85%)
Writing library : XviD 1.1.2 (UTC 2006-11-01)
Audio
ID : 1
Format : AC-3
Format/Info : Audio Coding 3
Mode extension : CM (complete main)
Codec ID : 2000
Duration : 1h 27mn
Bit rate mode : Constant
Bit rate : 448 Kbps
Channel(s) : 6 channels
Channel positions : Front: L C R, Side: L R, LFE
Sampling rate : 48.0 KHz
Stream size : 280 MiB (14%)
Alignment : Aligned on interleaves
Interleave, duration : 32 ms (0.77 video f
Alvin and the Chipmunks 3 2011 Ned Gesproken Skan/Alvin And the Chipmunks 3 2011.avi 2.05 GB
Alvin and the Chipmunks 3 2011 Ned Gesproken Skan/Cover/Alvin And The Chipmunks 2011 Cover.jpg 142.218 KB
Alvin and the Chipmunks 3 2011 Ned Gesproken Skan/Cover/flyer.jpg 33.678 KB
Gathering some info...

Register and log in Isohunt and see no captcha anymore!

4000 symbols left
Hash 9721a7f24292fd3f256bf206081609f662753d4a

Related torrents for "Alvin and the Chipmunks 3 2011 Ned Gesproken Skan"

Torrent search:

2011