imdb
rating

7.0
Defiance

Defiance (2013)

Drama, Science Fiction

Full description

Defiance S01E05 The Serpent's Egg 720X400.mp4

Size 253.971 MB   0 seeders     Added 2013-05-14 16:20:53

Stream torrent
Starting‥ You need BitLord! Get it from BitLord.com
To download or stream you need BitLord. Visit them at BitLord.com
							The Serpent's Egg
Nolan and Amanda face danger outside of town, while Irisa faces her past.
General
Complete name :Defiance S01E05 The Serpent's Egg 720X400.mp4
Format : MPEG-4
Format profile : Base Media
Codec ID : isom
File size : 241 MiB
Duration : 43mn 10s
Overall bit rate : 781 Kbps
Writing application : Lavf54.59.106
Video
ID : 1
Format : AVC
Format/Info : Advanced Video Codec
Format profile : High@L3.0
Format settings, CABAC : Yes
Format settings, ReFrames : 5 frames
Codec ID : avc1
Codec ID/Info : Advanced Video Coding
Duration : 43mn 9s
Bit rate mode : Variable
Bit rate : 711 Kbps
Width : 720 pixels
Height : 400 pixels
Display aspect ratio : 16:9
Frame rate mode : Variable
Frame rate : 23.976 fps
Minimum frame rate : 9.524 fps
Maximum frame rate : 32.258 fps
Color space : YUV
Chroma subsampling : 4:2:0
Bit depth : 8 bits
Scan type : Progressive
Bits/(Pixel*Frame) : 0.103
Stream size : 220 MiB (91%)
Audio
ID : 2
Format : AAC
Format/Info : Advanced Audio Codec
Format profile : HE-AAC / LC
Codec ID : 40
Duration : 43mn 10s
Bit rate mode : Constant
Bit rate : 64.0 Kbps
Channel(s) : 2 channels
Channel positions : Front: L R
Sampling rate : 48.0 KHz / 24.0 KHz
Compression mode : Lossy
Stream size : 19.8 MiB (8%)
Defiance S01E05 The Serpent's Egg 720X400.mp4/Defiance S01E05 The Serpent's Egg 720X400.mp4 252.793 MB
Defiance S01E05 The Serpent's Egg 720X400.mp4/vlcsnap-2013-05-14-04h09m17s5.png 432.774 KB
Defiance S01E05 The Serpent's Egg 720X400.mp4/vlcsnap-2013-05-14-04h07m09s240.png 381.899 KB
Gathering some info...

Register and log in Isohunt and see no captcha anymore!

4000 symbols left
Hash 6eed990df9c9628d8a865403a9a18588753a0197

Related torrents for "Defiance S01E05 The Serpent's Egg 720X400.mp4"

Torrent search:

season 01 episode 05 2013